45 Years (2015) Criterion + Extras (1080 Torrent Free Download

Seeders : 359   &   Leechers : 446      07-12-2018 (1 week)
45 Years (2015) Criterion + Extras (1080 Torrent Download
Added: ago by QxR ***** in Movies   3.8 GB   Hits : 24
Info Hash: 083C028FA7B164D77982C99C0DC424D6CE4592DA Download
45 Years (2015) Criterion + Extras (1080 Torrent Download

Anonymous and Direct Download movies , software , shows...

Fast Safe Anonymous
movies, software, shows...
12 Years a Slave
Biography /Drama /History  .   134 min   8.1/10
Director : Steve McQueen  
Tags: 45  Years  (2015)  Criterion  +  Extras  

Released:
08 Nov 2013
Based on an incredible true story of one man's fight for survival and freedom. In the pre-Civil War United States, Solomon Northup, a free black man from upstate New York, is abducted and sold into slavery. Facing cruelty personified by a malevolent slave owner, as.... See More well as unexpected kindnesses, Solomon struggles not only to stay alive, but to retain his dignity. In the twelfth year of his unforgettable odyssey, Solomon's chance meeting with a Canadian abolitionist will forever alter his life.

Torrent Description





http://www.imdb.com/title/tt3544082/





Media Information

Code:

General
Format : Matroska
Format version : Version 4 / Version 2
File size : 3.17 GiB
Duration : 1 h 35 min
Overall bit rate : 4 748 kb/s
Movie name : 45 Years
Encoded date : UTC 2018-12-04 19:17:58
Writing application : mkvmerge v20.0.0 ('I Am The Sun') 64-bit
Writing library : libebml v1.3.5 + libmatroska v1.4.8
Writing frontend : StaxRip v1.7.0.6

Video
ID : 1
Format : HEVC
Format/Info : High Efficiency Video Coding
Format profile : Main [email protected]@Main
Codec ID : V_MPEGH/ISO/HEVC
Duration : 1 h 35 min
Bit rate : 4 200 kb/s
Width : 1 920 pixels
Height : 1 040 pixels
Display aspect ratio : 1.85:1
Frame rate mode : Constant
Frame rate : 23.976 (24000/1001) FPS
Color space : YUV
Chroma subsampling : 4:2:0
Bit depth : 10 bits
Bits/(Pixel*Frame) : 0.088
Stream size : 2.81 GiB (88%)
Writing library : x265 2.9+8-27d8424c799d:[Windows][MSVC 1900][64 bit] 10bit
Encoding settings : cpuid=1111039 / frame-threads=3 / numa-pools=8 / wpp / no-pmode / no-pme / no-psnr / no-ssim / log-level=2 / input-csp=1 / input-res=1920x1040 / interlace=0 / total-frames=137603 / level-idc=0 / high-tier=1 / uhd-bd=0 / ref=4 / no-allow-non-conformance / no-repeat-headers / annexb / no-aud / no-hrd / info / hash=0 / no-temporal-layers / open-gop / min-keyint=23 / keyint=250 / gop-lookahead=0 / bframes=8 / b-adapt=2 / b-pyramid / bframe-bias=0 / rc-lookahead=60 / lookahead-slices=4 / scenecut=40 / radl=0 / no-intra-refresh / ctu=64 / min-cu-size=8 / no-rect / no-amp / max-tu-size=32 / tu-inter-depth=1 / tu-intra-depth=1 / limit-tu=0 / rdoq-level=2 / dynamic-rd=0.00 / no-ssim-rd / signhide / no-tskip / nr-intra=0 / nr-inter=0 / no-constrained-intra / strong-intra-smoothing / max-merge=3 / limit-refs=3 / limit-modes / me=3 / subme=5 / merange=57 / temporal-mvp / weightp / no-weightb / no-analyze-src-pics / deblock=-3:-3 / no-sao / no-sao-non-deblock / rd=4 / no-early-skip / rskip / no-fast-intra / no-tskip-fast / no-cu-lossless / no-b-intra / no-splitrd-skip / rdpenalty=0 / psy-rd=2.00 / psy-rdoq=1.00 / no-rd-refine / no-lossless / cbqpoffs=0 / crqpoffs=0 / rc=abr / bitrate=4200 / qcomp=0.60 / qpstep=4 / stats-write=0 / stats-read=2 / cplxblur=20.0 / qblur=0.5 / ipratio=1.40 / pbratio=1.30 / aq-mode=3 / aq-strength=1.00 / cutree / zone-count=0 / no-strict-cbr / qg-size=32 / no-rc-grain / qpmax=69 / qpmin=0 / no-const-vbv / sar=0 / overscan=0 / videoformat=5 / range=0 / colorprim=2 / transfer=2 / colormatrix=2 / chromaloc=0 / display-window=0 / max-cll=0,0 / min-luma=0 / max-luma=1023 / log2-max-poc-lsb=8 / vui-timing-info / vui-hrd-info / slices=1 / no-opt-qp-pps / no-opt-ref-list-length-pps / no-multi-pass-opt-rps / scenecut-bias=0.05 / no-opt-cu-delta-qp / no-aq-motion / no-hdr / no-hdr-opt / no-dhdr10-opt / no-idr-recovery-sei / analysis-reuse-level=5 / scale-factor=0 / refine-intra=0 / refine-inter=0 / refine-mv=0 / no-limit-sao / ctu-info=0 / no-lowpass-dct / refine-mv-type=0 / copy-pic=1 / max-ausize-factor=1.0 / no-dynamic-refine / no-single-sei
Default : Yes
Forced : No

Audio #1
ID : 2
Format : AAC
Format/Info : Advanced Audio Codec
Format profile : LC
Codec ID : A_AAC
Duration : 1 h 35 min
Bit rate : 458 kb/s
Channel(s) : 6 channels
Channel positions : Front: L C R, Side: L R, LFE
Sampling rate : 48.0 kHz
Frame rate : 46.875 FPS (1024 spf)
Compression mode : Lossy
Delay relative to video : 20 ms
Stream size : 313 MiB (10%)
Language : English
Default : Yes
Forced : No

Audio #2
ID : 3
Format : AAC
Format/Info : Advanced Audio Codec
Format profile : HE-AAC / LC
Codec ID : A_AAC
Duration : 1 h 35 min
Bit rate : 80.0 kb/s
Channel(s) : 2 channels
Channel positions : Front: L R
Sampling rate : 48.0 kHz / 24.0 kHz
Frame rate : 23.438 FPS (1024 spf)
Compression mode : Lossy
Delay relative to video : 40 ms
Stream size : 54.7 MiB (2%)
Language : English
Default : No
Forced : No

Subtitle
ID : 4
Format : VobSub
Muxing mode : zlib
Codec ID : S_VOBSUB
Codec ID/Info : Picture based subtitle format used on DVDs
Duration : 1 h 34 min
Bit rate : 11.3 kb/s
Count of elements : 1096
Stream size : 7.60 MiB (0%)
Language : English
Default : No
Forced : No

Menu
00:00:00.000 : en:Chapter 01
00:01:40.642 : en:Chapter 02
00:06:13.581 : en:Chapter 03
00:10:27.209 : en:Chapter 04
00:14:09.223 : en:Chapter 05
00:20:31.897 : en:Chapter 06
00:26:01.101 : en:Chapter 07
00:32:38.373 : en:Chapter 08
00:38:56.459 : en:Chapter 09
00:41:04.336 : en:Chapter 10
00:44:31.919 : en:Chapter 11
00:47:53.537 : en:Chapter 12
00:52:39.072 : en:Chapter 13
01:02:48.347 : en:Chapter 14
01:07:22.705 : en:Chapter 15
01:11:42.381 : en:Chapter 16
01:14:51.653 : en:Chapter 17
01:19:15.000 : en:Chapter 18
01:23:34.968 : en:Chapter 19
01:28:18.418 : en:Chapter 20
01:31:32.195 : en:Chapter 21

Source Information

Code:

Release:
45 Years 2015 1080p Criterion Collection Blu-ray AVC DTS HD MA 5.1-KIBAR FEYZO


Note From QxR:

Quote:

Whilst we are happy for our releases to be re-posted on a platform we aren't on, please do so in an 'as-is' format. We ask that you do not create a new torrent, include all descriptions you see above including the QxR logo, tags, notes and screenshots. If you'd like to become a permanent poster on a website we don't post to, feel free to get in contact with a QxR member.





Sharing Widget


No Comments For This Torrent . Be The First to Comment

You must Login to Comment . Click Here to Login

Menu 1

Some content in menu 1.

45 Years (2015) Criterion + Extras (1080p BluRay x265 HEVC 10bit AAC 5 (Size: 3.8 GB)
  45 Years (2015) Criterion + Extras (1080p BluRay x265 HEVC 10bit AAC 5 3.8 GB
tracker name
udp://tracker.leechers-paradise.org:6969/announce
udp://zer0day.ch:1337/announce
udp://open.demonii.com:1337/announce
udp://tracker.coppersurfer.tk:6969/announce
udp://exodus.desync.com:6969/announce
µTorrent compatible trackers list

Relative Torrents

Torrent Name Size Age SEED LEECH
Mary, Mary, Bloody Mary (1975) [BluRay] 1080p] [YTS] [YIFY]
Posted by    YTSAGx   in   Movies
1.4 GB 16 minutes 621 515
White Boy Rick 2018 720p BluRay HEVC x26-RMTeam
Posted by    bone111   in   Movies
622.7 MB 40 minutes 363 258
The House with a Clock in Its Walls 2018720p BluRay HEVC x265-RMTeam
Posted by    bone111   in   Movies
410.5 MB 46 minutes 125 374
Dune (edition__2000) 1080p x265 DTS blueate
Posted by    bluegate   in   Movies
20.9 GB 55 minutes 463 274
Made in France (2015 ITA/FRE) [1080p x26] [Paso77]
Posted by    paso77   in   Movies
10.4 GB 1 hour 658 220