Cake (2014) + Extras (1080p BluRay x265 Torrent Free Download

Seeders : 69   &   Leechers : 249      07-12-2018 (4 days)
Cake (2014) + Extras (1080p BluRay x265 Torrent Download
Added: ago by QxR ***** in Movies   3.6 GB   Hits : 20
Info Hash: 0922B3AF9A61C0D1121A04649469AD38A424EB89 Download
Cake (2014) + Extras (1080p BluRay x265 Torrent Download

Anonymous and Direct Download movies , software , shows...

Fast Safe Anonymous
movies, software, shows...
Cake
Drama   .   102 min   6.4/10
Director : Daniel Barnz  
Tags: Cake  (2014)  +  Extras  (1080p  BluRay  

Released:
23 Jan 2015
The acerbic, hilarious Claire Bennett becomes fascinated by the suicide of a woman in her chronic pain support group. As she uncovers the details of Nina's suicide and develops a poignant relationship with Nina's husband, she also grapples with her own, very raw pe.... See More rsonal tragedy.

Torrent Description





http://www.imdb.com/title/tt3442006/





Media Information

Code:

General
Format : Matroska
Format version : Version 4 / Version 2
File size : 3.44 GiB
Duration : 1 h 41 min
Overall bit rate : 4 840 kb/s
Movie name : Cake
Encoded date : UTC 2018-12-02 22:06:31
Writing application : mkvmerge v20.0.0 ('I Am The Sun') 64-bit
Writing library : libebml v1.3.5 + libmatroska v1.4.8
Writing frontend : StaxRip v1.7.0.6

Video
ID : 1
Format : HEVC
Format/Info : High Efficiency Video Coding
Format profile : Main [email protected]@Main
Codec ID : V_MPEGH/ISO/HEVC
Duration : 1 h 41 min
Bit rate : 4 498 kb/s
Width : 1 920 pixels
Height : 792 pixels
Display aspect ratio : 2.40:1
Frame rate mode : Constant
Frame rate : 23.976 (24000/1001) FPS
Color space : YUV
Chroma subsampling : 4:2:0
Bit depth : 10 bits
Bits/(Pixel*Frame) : 0.123
Stream size : 3.20 GiB (93%)
Writing library : x265 2.9+8-27d8424c799d:[Windows][MSVC 1900][64 bit] 10bit
Encoding settings : cpuid=1111039 / frame-threads=3 / numa-pools=8 / wpp / no-pmode / no-pme / no-psnr / no-ssim / log-level=2 / input-csp=1 / input-res=1920x792 / interlace=0 / total-frames=146376 / level-idc=0 / high-tier=1 / uhd-bd=0 / ref=4 / no-allow-non-conformance / no-repeat-headers / annexb / no-aud / no-hrd / info / hash=0 / no-temporal-layers / open-gop / min-keyint=23 / keyint=250 / gop-lookahead=0 / bframes=8 / b-adapt=2 / b-pyramid / bframe-bias=0 / rc-lookahead=60 / lookahead-slices=4 / scenecut=40 / radl=0 / no-intra-refresh / ctu=64 / min-cu-size=8 / no-rect / no-amp / max-tu-size=32 / tu-inter-depth=1 / tu-intra-depth=1 / limit-tu=0 / rdoq-level=2 / dynamic-rd=0.00 / no-ssim-rd / signhide / no-tskip / nr-intra=0 / nr-inter=0 / no-constrained-intra / strong-intra-smoothing / max-merge=3 / limit-refs=3 / limit-modes / me=3 / subme=5 / merange=57 / temporal-mvp / weightp / no-weightb / no-analyze-src-pics / deblock=-3:-3 / no-sao / no-sao-non-deblock / rd=4 / no-early-skip / rskip / no-fast-intra / no-tskip-fast / no-cu-lossless / no-b-intra / no-splitrd-skip / rdpenalty=0 / psy-rd=2.00 / psy-rdoq=1.00 / no-rd-refine / no-lossless / cbqpoffs=0 / crqpoffs=0 / rc=abr / bitrate=4500 / qcomp=0.60 / qpstep=4 / stats-write=0 / stats-read=2 / cplxblur=20.0 / qblur=0.5 / ipratio=1.40 / pbratio=1.30 / aq-mode=3 / aq-strength=1.00 / cutree / zone-count=0 / no-strict-cbr / qg-size=32 / no-rc-grain / qpmax=69 / qpmin=0 / no-const-vbv / sar=0 / overscan=0 / videoformat=5 / range=0 / colorprim=2 / transfer=2 / colormatrix=2 / chromaloc=0 / display-window=0 / max-cll=0,0 / min-luma=0 / max-luma=1023 / log2-max-poc-lsb=8 / vui-timing-info / vui-hrd-info / slices=1 / no-opt-qp-pps / no-opt-ref-list-length-pps / no-multi-pass-opt-rps / scenecut-bias=0.05 / no-opt-cu-delta-qp / no-aq-motion / no-hdr / no-hdr-opt / no-dhdr10-opt / no-idr-recovery-sei / analysis-reuse-level=5 / scale-factor=0 / refine-intra=0 / refine-inter=0 / refine-mv=0 / no-limit-sao / ctu-info=0 / no-lowpass-dct / refine-mv-type=0 / copy-pic=1 / max-ausize-factor=1.0 / no-dynamic-refine / no-single-sei
Default : Yes
Forced : No

Audio
ID : 2
Format : AAC
Format/Info : Advanced Audio Codec
Format profile : LC
Codec ID : A_AAC
Duration : 1 h 41 min
Bit rate : 323 kb/s
Channel(s) : 6 channels
Channel positions : Front: L C R, Side: L R, LFE
Sampling rate : 48.0 kHz
Frame rate : 46.875 FPS (1024 spf)
Compression mode : Lossy
Delay relative to video : 20 ms
Stream size : 235 MiB (7%)
Language : English
Default : Yes
Forced : No

Subtitle #1
ID : 3
Format : VobSub
Muxing mode : zlib
Codec ID : S_VOBSUB
Codec ID/Info : Picture based subtitle format used on DVDs
Duration : 1 h 39 min
Bit rate : 9 813 b/s
Count of elements : 1237
Stream size : 7.02 MiB (0%)
Language : English
Default : No
Forced : No

Subtitle #2
ID : 4
Format : VobSub
Muxing mode : zlib
Codec ID : S_VOBSUB
Codec ID/Info : Picture based subtitle format used on DVDs
Duration : 1 h 41 min
Bit rate : 7 269 b/s
Count of elements : 954
Stream size : 5.26 MiB (0%)
Language : Spanish
Default : No
Forced : No

Subtitle #3
ID : 5
Format : VobSub
Muxing mode : zlib
Codec ID : S_VOBSUB
Codec ID/Info : Picture based subtitle format used on DVDs
Duration : 1 h 40 min
Bit rate : 65 b/s
Count of elements : 8
Stream size : 48.0 KiB (0%)
Language : Spanish
Default : No
Forced : Yes

Subtitle #4
ID : 6
Format : VobSub
Muxing mode : zlib
Codec ID : S_VOBSUB
Codec ID/Info : Picture based subtitle format used on DVDs
Duration : 1 h 40 min
Bit rate : 63 b/s
Count of elements : 8
Stream size : 46.6 KiB (0%)
Language : Spanish
Default : No
Forced : No

Subtitle #5
ID : 7
Format : VobSub
Muxing mode : zlib
Codec ID : S_VOBSUB
Codec ID/Info : Picture based subtitle format used on DVDs
Duration : 1 h 40 min
Bit rate : 65 b/s
Count of elements : 8
Stream size : 48.0 KiB (0%)
Language : Spanish
Default : No
Forced : Yes

Subtitle #6
ID : 8
Format : VobSub
Muxing mode : zlib
Codec ID : S_VOBSUB
Codec ID/Info : Picture based subtitle format used on DVDs
Duration : 1 h 41 min
Bit rate : 8 573 b/s
Count of elements : 1016
Stream size : 6.21 MiB (0%)
Language : French
Default : No
Forced : No

Subtitle #7
ID : 9
Format : VobSub
Muxing mode : zlib
Codec ID : S_VOBSUB
Codec ID/Info : Picture based subtitle format used on DVDs
Duration : 1 h 40 min
Bit rate : 693 b/s
Count of elements : 71
Stream size : 508 KiB (0%)
Language : French
Default : No
Forced : Yes

Subtitle #8
ID : 10
Format : VobSub
Muxing mode : zlib
Codec ID : S_VOBSUB
Codec ID/Info : Picture based subtitle format used on DVDs
Duration : 1 h 40 min
Bit rate : 676 b/s
Count of elements : 71
Stream size : 496 KiB (0%)
Language : French
Default : No
Forced : No

Subtitle #9
ID : 11
Format : VobSub
Muxing mode : zlib
Codec ID : S_VOBSUB
Codec ID/Info : Picture based subtitle format used on DVDs
Duration : 1 h 40 min
Bit rate : 693 b/s
Count of elements : 71
Stream size : 508 KiB (0%)
Language : French
Default : No
Forced : Yes

Menu
00:00:00.000 : en:Chapter 01
00:03:15.904 : en:Chapter 02
00:05:44.886 : en:Chapter 03
00:08:37.892 : en:Chapter 04
00:10:55.780 : en:Chapter 05
00:14:02.466 : en:Chapter 06
00:17:06.650 : en:Chapter 07
00:19:37.759 : en:Chapter 08
00:22:36.438 : en:Chapter 09
00:25:43.792 : en:Chapter 10
00:27:12.422 : en:Chapter 11
00:30:57.564 : en:Chapter 12
00:34:20.266 : en:Chapter 13
00:36:28.019 : en:Chapter 14
00:37:57.817 : en:Chapter 15
00:42:39.223 : en:Chapter 16
00:47:09.910 : en:Chapter 17
00:50:59.389 : en:Chapter 18
00:52:19.594 : en:Chapter 19
00:55:56.644 : en:Chapter 20
01:00:21.117 : en:Chapter 21
01:03:07.784 : en:Chapter 22
01:07:40.139 : en:Chapter 23
01:11:06.553 : en:Chapter 24
01:15:55.133 : en:Chapter 25
01:17:54.961 : en:Chapter 26
01:22:18.099 : en:Chapter 27
01:25:17.070 : en:Chapter 28
01:27:48.012 : en:Chapter 29
01:31:18.264 : en:Chapter 30
01:33:50.416 : en:Chapter 31
01:36:38.042 : en:Chapter 32

Source Information

Code:

Release:
Cake.2014.1080p.BluRay.AVC.DTS-HD.MA.5.1-HDAccess


Note From QxR:

Quote:

Whilst we are happy for our releases to be re-posted on a platform we aren't on, please do so in an 'as-is' format. We ask that you do not create a new torrent, include all descriptions you see above including the QxR logo, tags, notes and screenshots. If you'd like to become a permanent poster on a website we don't post to, feel free to get in contact with a QxR member.





Sharing Widget


No Comments For This Torrent . Be The First to Comment

You must Login to Comment . Click Here to Login

Menu 1

Some content in menu 1.

Cake (2014) + Extras (1080p BluRay x265 HEVC 10bit AAC 5 1 Silence) [Q (Size: 3.6 GB)
  Cake (2014) + Extras (1080p BluRay x265 HEVC 10bit AAC 5 1 Silence) [Q 3.6 GB
tracker name
udp://tracker.leechers-paradise.org:6969/announce
udp://zer0day.ch:1337/announce
udp://open.demonii.com:1337/announce
udp://tracker.coppersurfer.tk:6969/announce
udp://exodus.desync.com:6969/announce
µTorrent compatible trackers list

Relative Torrents

Torrent Name Size Age SEED LEECH
Lego Star Wars All-Stars SHORTS Season 1Complete 1080p WEBRip x264 [i_c]
Posted by    icecracked   in   TV
525.9 MB 2 minutes 603 461
James Corden 2018 12 11 Ellen DeGeneres EB x264-TBS[TGx]
Posted by    mazemaze16   in   TV
629.4 MB 7 minutes 149 971
Marvels Avengers Assemble Season 5 Complte Black Panther's Quest 720p WEB-DL x2
Posted by    icecracked   in   TV
2.4 GB 12 minutes 829 914
Black Lightning S02E09 720p WEB x264 [41MB] [MP4]
Posted by    TorrentCouch   in   TV
416.0 MB 12 minutes 386 702
James Corden 2018 12 11 Ellen DeGeneres 20p WEB x264-TBS [eztv]
Posted by    EZTVag   in   TV
880.1 MB 12 minutes 14 540