Crash (2004) DC (1080p BluRay x265 HEVC Torrent Free Download

Seeders : 318   &   Leechers : 872      07-12-2018 (5 days)
Crash (2004) DC (1080p BluRay x265 HEVC Torrent Download
Added: ago by QxR ***** in Movies   5.2 GB   Hits : 23
Info Hash: 8342557266271745F528FD9C23E4F5A165634BC5 Download
Crash (2004) DC (1080p BluRay x265 HEVC Torrent Download

Anonymous and Direct Download movies , software , shows...

Fast Safe Anonymous
movies, software, shows...
Crash
Crime /Drama /Thriller  .   112 min   7.8/10
Director : Paul Haggis  
Tags: Crash  (2004)  DC  (1080p  BluRay  x265  

Released:
06 May 2005
Over a thirty-six hour period in Los Angeles, a handful of disparate people's lives intertwine as they deal with the tense race relations that belie life in the city. Among the players are: the Caucasian district attorney, who uses race as a political card; his Cau.... See More casian wife, who, having recently been carjacked by two black men, believes that her stereotypical views of non-whites is justified and cannot be considered racism; the two black carjackers who use their race both to their advantage and as an excuse; partnered Caucasian police constables, one who is a racist and uses his authority to harass non-whites, and the other who hates his partner because of those racist views, but who may have the same underlying values in his subconscious; a black film director and his black wife, who believes her husband doesn't support their black background enough, especially in light of an incident with the racist white cop; partnered police detectives and sometimes lovers, one Hispanic female and the other black male, the latter who is dealing with a drugged out mother that feels he isn't concerned enough about taking care of family; an East Asian man who is run over but who is hiding some valuable cargo in the back of his van; a Persian store owner, who feels he isn't getting satisfaction from American society when his store is robbed time and time again; and a Hispanic locksmith, who just wants to keep his family, especially his young daughter, safe in a seemingly unsafe world.

Torrent Description





http://www.imdb.com/title/tt0375679/





Media Information

Code:

General
Format : Matroska
Format version : Version 4 / Version 2
File size : 5.17 GiB
Duration : 1 h 55 min
Overall bit rate : 6 429 kb/s
Movie name : Crash (2004)
Encoded date : UTC 2018-12-03 08:39:11
Writing application : mkvmerge v28.2.0 ('The Awakening') 64-bit
Writing library : libebml v1.3.6 + libmatroska v1.4.9
Writing frontend : StaxRip v1.9.0.0

Video
ID : 1
Format : HEVC
Format/Info : High Efficiency Video Coding
Format profile : Main [email protected]@Main
Codec ID : V_MPEGH/ISO/HEVC
Duration : 1 h 54 min
Bit rate : 5 875 kb/s
Width : 1 920 pixels
Height : 816 pixels
Display aspect ratio : 2.35:1
Frame rate mode : Constant
Frame rate : 24.000 FPS
Color space : YUV
Chroma subsampling : 4:2:0
Bit depth : 10 bits
Bits/(Pixel*Frame) : 0.156
Stream size : 4.71 GiB (91%)
Writing library : x265 2.9+8-27d8424c799d:[Windows][GCC 8.2.0][64 bit] 10bit
Encoding settings : cpuid=1111039 / frame-threads=3 / numa-pools=8 / wpp / no-pmode / no-pme / no-psnr / no-ssim / log-level=2 / input-csp=1 / input-res=1920x816 / interlace=0 / total-frames=165425 / level-idc=0 / high-tier=1 / uhd-bd=0 / ref=4 / no-allow-non-conformance / no-repeat-headers / annexb / no-aud / no-hrd / info / hash=0 / no-temporal-layers / open-gop / min-keyint=24 / keyint=250 / gop-lookahead=0 / bframes=8 / b-adapt=2 / b-pyramid / bframe-bias=0 / rc-lookahead=80 / lookahead-slices=4 / scenecut=40 / radl=0 / no-intra-refresh / ctu=64 / min-cu-size=8 / rect / no-amp / max-tu-size=32 / tu-inter-depth=1 / tu-intra-depth=1 / limit-tu=0 / rdoq-level=2 / dynamic-rd=0.00 / no-ssim-rd / signhide / no-tskip / nr-intra=0 / nr-inter=0 / no-constrained-intra / no-strong-intra-smoothing / max-merge=3 / limit-refs=3 / limit-modes / me=3 / subme=5 / merange=57 / temporal-mvp / weightp / no-weightb / no-analyze-src-pics / deblock=-3:-3 / no-sao / no-sao-non-deblock / rd=4 / no-early-skip / rskip / no-fast-intra / no-tskip-fast / no-cu-lossless / no-b-intra / no-splitrd-skip / rdpenalty=0 / psy-rd=2.00 / psy-rdoq=1.50 / no-rd-refine / no-lossless / cbqpoffs=0 / crqpoffs=0 / rc=crf / crf=20.0 / qcomp=0.60 / qpstep=4 / stats-write=0 / stats-read=0 / ipratio=1.40 / pbratio=1.30 / aq-mode=3 / aq-strength=1.00 / cutree / zone-count=0 / no-strict-cbr / qg-size=32 / no-rc-grain / qpmax=69 / qpmin=0 / no-const-vbv / sar=0 / overscan=0 / videoformat=5 / range=0 / colorprim=2 / transfer=2 / colormatrix=2 / chromaloc=0 / display-window=0 / max-cll=0,0 / min-luma=0 / max-luma=1023 / log2-max-poc-lsb=8 / vui-timing-info / vui-hrd-info / slices=1 / no-opt-qp-pps / no-opt-ref-list-length-pps / no-multi-pass-opt-rps / scenecut-bias=0.05 / no-opt-cu-delta-qp / aq-motion / no-hdr / no-hdr-opt / no-dhdr10-opt / no-idr-recovery-sei / analysis-reuse-level=5 / scale-factor=0 / refine-intra=0 / refine-inter=0 / refine-mv=0 / no-limit-sao / ctu-info=0 / no-lowpass-dct / refine-mv-type=0 / copy-pic=1 / max-ausize-factor=1.0 / no-dynamic-refine / no-single-sei
Default : Yes
Forced : No

Audio #1
ID : 2
Format : AAC
Format/Info : Advanced Audio Codec
Format profile : LC
Codec ID : A_AAC
Duration : 1 h 55 min
Bit rate : 468 kb/s
Channel(s) : 6 channels
Channel positions : Front: L C R, Side: L R, LFE
Sampling rate : 48.0 kHz
Frame rate : 46.875 FPS (1024 spf)
Compression mode : Lossy
Delay relative to video : 20 ms
Stream size : 385 MiB (7%)
Language : English
Default : No
Forced : No

Audio #2
ID : 3
Format : AAC
Format/Info : Advanced Audio Codec
Format profile : HE-AAC / LC
Codec ID : A_AAC
Duration : 1 h 55 min
Bit rate : 80.0 kb/s
Channel(s) : 2 channels
Channel positions : Front: L R
Sampling rate : 48.0 kHz / 24.0 kHz
Frame rate : 23.438 FPS (1024 spf)
Compression mode : Lossy
Delay relative to video : 1 s 831 ms
Stream size : 65.8 MiB (1%)
Title : Commentary
Language : English
Default : Yes
Forced : No

Subtitle
ID : 4
Format : PGS
Muxing mode : zlib
Codec ID : S_HDMV/PGS
Codec ID/Info : Picture based subtitle format used on BDs/HD-DVDs
Duration : 1 h 46 min
Bit rate : 41.7 kb/s
Count of elements : 2596
Stream size : 31.9 MiB (1%)
Language : English
Default : No
Forced : No

Menu
00:00:00.000 : en:Main Titles/Frame of Reference
00:05:53.666 : en:Blind Fear
00:10:01.791 : en:A Nice Gun
00:15:24.250 : en:Sobriety Test
00:22:34.583 : en:A Little Anger
00:30:34.666 : en:Invisible and Impenetrable
00:33:24.666 : en:A Personal Problem
00:38:26.291 : en:Locked and Loaded
00:43:35.791 : en:Taking the Bus
00:49:23.458 : en:Ringing False
00:55:19.125 : en:Brother's Keeper
01:00:22.708 : en:Uninsured
01:06:28.208 : en:Trust
01:12:16.583 : en:On a Gut Level
01:16:44.000 : en:Breaking Point
01:21:10.125 : en:Threatening Gestures
01:24:06.333 : en:A Really Good Cloak
01:27:03.500 : en:Happenstance
01:32:24.208 : en:Miscommunication
01:36:29.708 : en:Human Cargo
01:41:09.875 : en:Things to Do
01:44:35.541 : en:Connections
01:47:34.125 : en:L.A. Snowfall
01:50:52.291 : en:End Credits

Source Information

Code:

Release:
Crash.2004.Directors.Cut.BluRay.1080p.DTS-HD.MA.5.1.AVC.HYBRID.REMUX-FraMeSToR


Note From QxR:

Quote:

Whilst we are happy for our releases to be re-posted on a platform we aren't on, please do so in an 'as-is' format. We ask that you do not create a new torrent, include all descriptions you see above including the QxR logo, tags, notes and screenshots. If you'd like to become a permanent poster on a website we don't post to, feel free to get in contact with a QxR member.





Sharing Widget


No Comments For This Torrent . Be The First to Comment

You must Login to Comment . Click Here to Login

Menu 1

Some content in menu 1.

Crash (2004) DC (1080p BluRay x265 HEVC 10bit AAC 5 1 afm72) [QxR] (Size: 5.2 GB)
  Crash (2004) DC (1080p BluRay x265 HEVC 10bit AAC 5 1 afm72) [QxR] 5.2 GB
tracker name
udp://tracker.leechers-paradise.org:6969/announce
udp://zer0day.ch:1337/announce
udp://open.demonii.com:1337/announce
udp://tracker.coppersurfer.tk:6969/announce
udp://exodus.desync.com:6969/announce
µTorrent compatible trackers list

Relative Torrents

Torrent Name Size Age SEED LEECH
Blackish S05E08 iNTERNAL 720p WEB H264-ARAP
Posted by    Trige   in   TV
456.8 MB 3 minutes 329 675
The Rookie S01E08 iNTERNAL 720p WEB h264BAMBOOZLE [eztv]
Posted by    EZTVag   in   TV
656.0 MB 3 minutes 229 432
Shaun Micallefs MAD AS HELL S09E13 WEB x64-FLX [eztv]
Posted by    EZTVag   in   TV
296.6 MB 3 minutes 944 256
The Voice S15E24 720p WEB x264-TBS
Posted by    Trige   in   TV
820.7 MB 3 minutes 674 444
Blackish S05E08 1080p WEB H264-METCON
Posted by    Trige   in   TV
1.3 GB 3 minutes 760 429