Far from Heaven (2002) (1080p BluRay x26 Torrent Free Download

Seeders : 503   &   Leechers : 263      07-12-2018 (4 days)
Far from Heaven (2002) (1080p BluRay x26 Torrent Download
Added: ago by QxR ***** in Movies   3.6 GB   Hits : 21
Info Hash: C05CDB1A52B8273B21CE041A644BC936E169F558 Download
Far from Heaven (2002) (1080p BluRay x26 Torrent Download

Anonymous and Direct Download movies , software , shows...

Fast Safe Anonymous
movies, software, shows...
Far from Heaven
Drama   .   107 min   7.4/10
Director : Todd Haynes  
Writer: Todd Haynes  
Tags: Far  from  Heaven  (2002)  (1080p  BluRay  

Released:
10 Jan 2003
Cathy is the perfect 50s housewife, living the perfect 50s life: healthy kids, successful husband, social prominence. Then one night she stumbles in on her husband Frank, kissing another man, and her tidy world starts spinning out of control. In her confusion and g.... See More rief, she finds consolation in the friendship of their African-American gardener, Raymond - a socially taboo relationship that leads to the further disintegration of life as she knew it. Despite Cathy and Frank's struggle to keep their marriage afloat, the reality of his homosexuality and her feelings for Raymond open a painful, if more honest, chapter in their lives.

Torrent Description





http://www.imdb.com/title/tt0297884/





Media Information

Code:

General
Format : Matroska
Format version : Version 4 / Version 2
File size : 3.64 GiB
Duration : 1 h 47 min
Overall bit rate : 4 857 kb/s
Movie name : FAR FROM HEAVEN
Encoded date : UTC 2018-12-05 20:25:27
Writing application : mkvmerge v17.0.0 ('Be Ur Friend') 64-bit
Writing library : libebml v1.3.5 + libmatroska v1.4.8
Writing frontend : StaxRip v1.7.0.6

Video
ID : 1
Format : HEVC
Format/Info : High Efficiency Video Coding
Format profile : Main [email protected]@Main
Codec ID : V_MPEGH/ISO/HEVC
Duration : 1 h 47 min
Bit rate : 4 501 kb/s
Width : 1 920 pixels
Height : 1 040 pixels
Display aspect ratio : 1.85:1
Frame rate mode : Constant
Frame rate : 23.976 (24000/1001) FPS
Color space : YUV
Chroma subsampling : 4:2:0
Bit depth : 10 bits
Bits/(Pixel*Frame) : 0.094
Stream size : 3.37 GiB (93%)
Writing library : x265 2.9+8-27d8424c799d:[Windows][MSVC 1900][64 bit] 10bit
Encoding settings : cpuid=1111039 / frame-threads=3 / numa-pools=8 / wpp / no-pmode / no-pme / no-psnr / no-ssim / log-level=2 / input-csp=1 / input-res=1920x1040 / interlace=0 / total-frames=154413 / level-idc=0 / high-tier=1 / uhd-bd=0 / ref=4 / no-allow-non-conformance / no-repeat-headers / annexb / no-aud / no-hrd / info / hash=0 / no-temporal-layers / open-gop / min-keyint=23 / keyint=250 / gop-lookahead=0 / bframes=8 / b-adapt=2 / b-pyramid / bframe-bias=0 / rc-lookahead=60 / lookahead-slices=4 / scenecut=40 / radl=0 / no-intra-refresh / ctu=64 / min-cu-size=8 / no-rect / no-amp / max-tu-size=32 / tu-inter-depth=1 / tu-intra-depth=1 / limit-tu=0 / rdoq-level=2 / dynamic-rd=0.00 / no-ssim-rd / signhide / no-tskip / nr-intra=0 / nr-inter=0 / no-constrained-intra / strong-intra-smoothing / max-merge=3 / limit-refs=3 / limit-modes / me=3 / subme=5 / merange=57 / temporal-mvp / weightp / no-weightb / no-analyze-src-pics / deblock=-3:-3 / no-sao / no-sao-non-deblock / rd=4 / no-early-skip / rskip / no-fast-intra / no-tskip-fast / no-cu-lossless / no-b-intra / no-splitrd-skip / rdpenalty=0 / psy-rd=2.00 / psy-rdoq=1.00 / no-rd-refine / no-lossless / cbqpoffs=0 / crqpoffs=0 / rc=abr / bitrate=4500 / qcomp=0.60 / qpstep=4 / stats-write=0 / stats-read=2 / cplxblur=20.0 / qblur=0.5 / ipratio=1.40 / pbratio=1.30 / aq-mode=3 / aq-strength=1.00 / cutree / zone-count=0 / no-strict-cbr / qg-size=32 / no-rc-grain / qpmax=69 / qpmin=0 / no-const-vbv / sar=0 / overscan=0 / videoformat=5 / range=0 / colorprim=2 / transfer=2 / colormatrix=2 / chromaloc=0 / display-window=0 / max-cll=0,0 / min-luma=0 / max-luma=1023 / log2-max-poc-lsb=8 / vui-timing-info / vui-hrd-info / slices=1 / no-opt-qp-pps / no-opt-ref-list-length-pps / no-multi-pass-opt-rps / scenecut-bias=0.05 / no-opt-cu-delta-qp / no-aq-motion / no-hdr / no-hdr-opt / no-dhdr10-opt / no-idr-recovery-sei / analysis-reuse-level=5 / scale-factor=0 / refine-intra=0 / refine-inter=0 / refine-mv=0 / no-limit-sao / ctu-info=0 / no-lowpass-dct / refine-mv-type=0 / copy-pic=1 / max-ausize-factor=1.0 / no-dynamic-refine / no-single-sei
Default : Yes
Forced : No

Audio
ID : 2
Format : AAC
Format/Info : Advanced Audio Codec
Format profile : LC
Codec ID : A_AAC
Duration : 1 h 47 min
Bit rate : 353 kb/s
Channel(s) : 6 channels
Channel positions : Front: L C R, Side: L R, LFE
Sampling rate : 48.0 kHz
Frame rate : 46.875 FPS (1024 spf)
Compression mode : Lossy
Delay relative to video : 20 ms
Stream size : 272 MiB (7%)
Language : English
Default : Yes
Forced : No

Subtitle #1
ID : 3
Format : UTF-8
Codec ID : S_TEXT/UTF8
Codec ID/Info : UTF-8 Plain Text
Duration : 1 h 37 min
Bit rate : 65 b/s
Count of elements : 1280
Stream size : 46.6 KiB (0%)
Language : English
Default : Yes
Forced : No

Subtitle #2
ID : 4
Format : VobSub
Muxing mode : zlib
Codec ID : S_VOBSUB
Codec ID/Info : Picture based subtitle format used on DVDs
Duration : 1 h 41 min
Bit rate : 23 b/s
Count of elements : 5
Stream size : 17.8 KiB (0%)
Language : French
Default : No
Forced : No

Menu
00:00:00.000 : en:Chapter 01
00:04:32.689 : en:Chapter 02
00:08:43.564 : en:Chapter 03
00:13:42.947 : en:Chapter 04
00:18:14.927 : en:Chapter 05
00:23:35.330 : en:Chapter 06
00:28:43.179 : en:Chapter 07
00:34:19.599 : en:Chapter 08
00:37:37.213 : en:Chapter 09
00:42:56.824 : en:Chapter 10
00:48:41.168 : en:Chapter 11
00:53:36.880 : en:Chapter 12
01:01:28.851 : en:Chapter 13
01:04:52.680 : en:Chapter 14
01:09:36.046 : en:Chapter 15
01:12:51.825 : en:Chapter 16
01:18:29.496 : en:Chapter 17
01:25:35.380 : en:Chapter 18
01:29:55.139 : en:Chapter 19
01:37:20.292 : en:Chapter 20
01:42:58.463 : en:Chapter 21

Source Information

Code:

Release:
Far from Heaven 2002 1080p CAN Blu-ray AVC DTS-HD MA 5.1


Note From QxR:

Quote:

Whilst we are happy for our releases to be re-posted on a platform we aren't on, please do so in an 'as-is' format. We ask that you do not create a new torrent, include all descriptions you see above including the QxR logo, tags, notes and screenshots. If you'd like to become a permanent poster on a website we don't post to, feel free to get in contact with a QxR member.





Sharing Widget


No Comments For This Torrent . Be The First to Comment

You must Login to Comment . Click Here to Login

Menu 1

Some content in menu 1.

Far from Heaven (2002) (1080p BluRay x265 HEVC 10bit AAC 5 1 Silence) (Size: 3.6 GB)
  Far from Heaven (2002) (1080p BluRay x265 HEVC 10bit AAC 5 1 Silence) 3.6 GB
tracker name
udp://tracker.leechers-paradise.org:6969/announce
udp://zer0day.ch:1337/announce
udp://open.demonii.com:1337/announce
udp://tracker.coppersurfer.tk:6969/announce
udp://exodus.desync.com:6969/announce
µTorrent compatible trackers list

Relative Torrents

Torrent Name Size Age SEED LEECH
Stephen Colbert 2018 12 11 Whoopi Goldbeg WEB x264-TBS [eztv]
Posted by    EZTVag   in   TV
648.6 MB 3 minutes 462 295
Nowhere Boys S04E10 WEB x264-FLX [eztv]
Posted by    EZTVag   in   TV
213.0 MB 3 minutes 325 214
Jalebi The Taste of Everlasting Love (208) 720p WEB-Rip x264 AC3 DD5 1 - ESUB ~
Posted by    TheFighter   in   Movies
1.3 GB 7 minutes 125 921
Adam Ruins Everything S02E25 480p x264-mD [eztv]
Posted by    EZTVag   in   TV
117.1 MB 8 minutes 70 859
Stephen Colbert 2018 12 11 Whoopi Goldbeg WEB x264-TBS[TGx]
Posted by    mazemaze16   in   TV
651.9 MB 8 minutes 108 595