Pihu (2018) Hindi 720p WEB-Rip x264 AAC Torrent Free Download

Seeders : 1   &   Leechers : 309      11-01-2019 (6 days)
Pihu (2018) Hindi 720p WEB-Rip x264 AAC Torrent Download
Added: ago by TheFighter ***** in Movies   1.1 GB   Hits : 19
Info Hash: 1D3A5C0681C77D00C2369AD7C33354B3E83BC7AD Download
Pihu (2018) Hindi 720p WEB-Rip x264 AAC Torrent Download

Anonymous and Direct Download movies , software , shows...

Fast Safe Anonymous
movies, software, shows...
Pihu
Short /Romance  .   N/A   7.8/10
Director : Sachin Gupta  
Writer: Sachin Gupta  
Tags: Pihu  (2018)  Hindi  720p  WEB-Rip  x264  

Released:
01 Jun 2018
N/A

Torrent Description







Join My Facebook Group

Pihu (2018) Hindi 720p WEB-Rip x264 AAC 2.0 ~ Ranvijay

Buy RDP Online




Format : Matroska
Format version : Version 4 / Version 2
File size : 1.07 GiB
Duration : 1 h 30 min
Overall bit rate : 1 692 kb/s
Movie name : Pihu (2018) Hindi 720p WEB-Rip x264 AAC 2.0 ~ Ranvijay

Video
ID : 1
Format : AVC
Format/Info : Advanced Video Codec
Duration : 1 h 30 min
Bit rate : 1 500 kb/s
Width : 1 280 pixels
Height : 536 pixels
Display aspect ratio : 2.40:1
Frame rate mode : Constant
Frame rate : 24.000 FPS
Color space : YUV
Chroma subsampling : 4:2:0
Bit depth : 8 bits
Scan type : Progressive
Bits/(Pixel*Frame) : 0.091
Stream size : 967 MiB (89%)
Title : ~Ranvijay~

Audio
ID : 2
Format : AAC
Format/Info : Advanced Audio Codec
Format profile : LC
Codec ID : A_AAC-2
Duration : 1 h 30 min
Bit rate : 192 kb/s
Channel(s) : 2 channels
Channel positions : Front: L R
Sampling rate : 48.0 kHz
Frame rate : 46.875 FPS (1024 SPF)
Compression mode : Lossy
Stream size : 124 MiB (11%)
Title : ~Ranvijay~
Language : Hindi
Default : Yes
Forced : Yes

















Don't walk as you are king, walk as you don't care who the king is....!!




Sharing Widget


No Comments For This Torrent . Be The First to Comment

You must Login to Comment . Click Here to Login

Menu 1

Some content in menu 1.

Pihu (2018) Hindi 720p WEB-Rip x264 AAC 2 0 ~ Ranvijay (Size: 1.1 GB)
  Pihu (2018) Hindi 720p WEB-Rip x264 AAC 2 0 ~ Ranvijay 1.1 GB
tracker name
udp://tracker.leechers-paradise.org:6969/announce
udp://zer0day.ch:1337/announce
udp://open.demonii.com:1337/announce
udp://tracker.coppersurfer.tk:6969/announce
udp://exodus.desync.com:6969/announce
µTorrent compatible trackers list

Relative Torrents

Torrent Name Size Age SEED LEECH
The Goldbergs 2013 S06E12 The Pina Colad Episode 720p AMZN WEB-DL DDP5 1 H 264-
Posted by    EZTVag   in   TV
432.3 MB 1 minute 144 181
My 600-Lb Life S07E03 Robin and GarrettsStory 720p HDTV x264-CRiMSON
Posted by    Trige   in   TV
1.8 GB 1 minute 629 268
Gotham S05E03 720p HDTV x264-CREDITFARMES[TGx]
Posted by    mazemaze16   in   TV
885.8 MB 1 minute 734 613
Young Sheldon S02E13 WEBRip x264-ION10
Posted by    Trige   in   TV
196.7 MB 1 minute 377 479
The First 48 S18E02 The Grudge 720p HDTVx264-CRiMSON
Posted by    Trige   in   TV
696.0 MB 1 minute 617 658