Play Misty for Me (1971) (1080p BluRay x Torrent Free Download

Seeders : 322   &   Leechers : 530      07-12-2018 (4 days)
Play Misty for Me (1971) (1080p BluRay x Torrent Download
Added: ago by QxR ***** in Movies   4.2 GB   Hits : 19
Info Hash: 34100768D15907C6984AA08539AA27C80EA39CD3 Download
Play Misty for Me (1971) (1080p BluRay x Torrent Download

Anonymous and Direct Download movies , software , shows...

Fast Safe Anonymous
movies, software, shows...
Play Misty for Me
Thriller   .   102 min   7.0/10
Director : Clint Eastwood  
Tags: Play  Misty  for  Me  (1971)  (1080p  

Released:
12 Nov 1971
Disc jockey Dave Garver attracts the amorous attentions of a demented fan named Evelyn Draper. Evelyn lets Dave pick her up at a bar; later at her apartment Evelyn admits that she is the cooing caller who repeatedly asks Dave to play the Erroll Garner classic "Mist.... See More y." From then on, the film is a lesson in how one casual date can turn your whole life around. Evelyn stalks Dave everywhere, ruins his business lunch, assaults his maid, mutilates his house and all of his belongings, and finally threatens to butcher his girlfriend Tobie Williams. You'll never be able to hear that song again without looking over your shoulder.

Torrent Description





http://www.imdb.com/title/tt0067588/



Note from Encoder:

Encoded with 2-Pass at 5,000 kb/s, includes subtitles in English and over 20 other languages.





Media Information

Code:

General
Format : Matroska
Format version : Version 4 / Version 2
File size : 4.23 GiB
Duration : 1 h 42 min
Overall bit rate : 5 935 kb/s
Movie name : Play Misty for Me
Encoded date : UTC 2018-12-05 20:38:22
Writing application : mkvmerge v28.1.0 ('Morning Child') 64-bit
Writing library : libebml v1.3.6 + libmatroska v1.4.9
Cover : Yes
Attachments : cover.jpg
Writing frontend : StaxRip v1.7.0.6

Video
ID : 1
Format : HEVC
Format/Info : High Efficiency Video Coding
Format profile : Main [email protected]@Main
Codec ID : V_MPEGH/ISO/HEVC
Duration : 1 h 42 min
Bit rate : 5 002 kb/s
Width : 1 920 pixels
Height : 1 040 pixels
Display aspect ratio : 1.85:1
Frame rate mode : Constant
Frame rate : 23.976 (24000/1001) FPS
Color space : YUV
Chroma subsampling : 4:2:0
Bit depth : 10 bits
Bits/(Pixel*Frame) : 0.104
Stream size : 3.57 GiB (84%)
Title : Encoded by r00t
Writing library : x265 2.9+8-27d8424c799d:[Windows][MSVC 1915][64 bit] 10bit
Encoding settings : cpuid=1111039 / frame-threads=2 / numa-pools=4 / wpp / no-pmode / no-pme / no-psnr / no-ssim / log-level=2 / input-csp=1 / input-res=1920x1040 / interlace=0 / total-frames=146844 / level-idc=0 / high-tier=1 / uhd-bd=0 / ref=4 / no-allow-non-conformance / no-repeat-headers / annexb / no-aud / no-hrd / info / hash=0 / no-temporal-layers / open-gop / min-keyint=23 / keyint=250 / gop-lookahead=0 / bframes=4 / b-adapt=2 / b-pyramid / bframe-bias=0 / rc-lookahead=25 / lookahead-slices=4 / scenecut=40 / radl=0 / no-intra-refresh / ctu=64 / min-cu-size=8 / no-rect / no-amp / max-tu-size=32 / tu-inter-depth=1 / tu-intra-depth=1 / limit-tu=0 / rdoq-level=2 / dynamic-rd=0.00 / no-ssim-rd / signhide / no-tskip / nr-intra=0 / nr-inter=0 / no-constrained-intra / no-strong-intra-smoothing / max-merge=3 / limit-refs=3 / limit-modes / me=3 / subme=3 / merange=57 / temporal-mvp / weightp / no-weightb / no-analyze-src-pics / deblock=0:0 / no-sao / no-sao-non-deblock / rd=4 / no-early-skip / no-rskip / no-fast-intra / no-tskip-fast / no-cu-lossless / no-b-intra / no-splitrd-skip / rdpenalty=0 / psy-rd=4.00 / psy-rdoq=10.00 / no-rd-refine / no-lossless / cbqpoffs=0 / crqpoffs=0 / rc=abr / bitrate=5000 / qcomp=0.60 / qpstep=1 / stats-write=0 / stats-read=2 / cplxblur=20.0 / qblur=0.5 / ipratio=1.10 / pbratio=1.00 / aq-mode=3 / aq-strength=1.00 / no-cutree / zone-count=0 / no-strict-cbr / qg-size=32 / rc-grain / qpmax=69 / qpmin=0 / const-vbv / sar=0 / overscan=0 / videoformat=5 / range=0 / colorprim=2 / transfer=2 / colormatrix=2 / chromaloc=0 / display-window=0 / max-cll=0,0 / min-luma=0 / max-luma=1023 / log2-max-poc-lsb=8 / vui-timing-info / vui-hrd-info / slices=1 / no-opt-qp-pps / no-opt-ref-list-length-pps / no-multi-pass-opt-rps / scenecut-bias=0.05 / no-opt-cu-delta-qp / no-aq-motion / no-hdr / no-hdr-opt / no-dhdr10-opt / no-idr-recovery-sei / analysis-reuse-level=5 / scale-factor=0 / refine-intra=0 / refine-inter=0 / refine-mv=0 / no-limit-sao / ctu-info=0 / no-lowpass-dct / refine-mv-type=0 / copy-pic=1 / max-ausize-factor=1.0 / no-dynamic-refine / no-single-sei
Default : Yes
Forced : No

Audio #1
ID : 2
Format : AAC
Format/Info : Advanced Audio Codec
Format profile : LC
Codec ID : A_AAC
Duration : 1 h 42 min
Bit rate : 90.2 kb/s
Channel(s) : 2 channels
Channel positions : Front: L R
Sampling rate : 48.0 kHz
Frame rate : 46.875 FPS (1024 spf)
Compression mode : Lossy
Delay relative to video : 20 ms
Stream size : 65.9 MiB (2%)
Language : English
Default : Yes
Forced : No

Audio #2
ID : 3
Format : AAC
Format/Info : Advanced Audio Codec
Format profile : HE-AAC / LC
Codec ID : A_AAC
Duration : 1 h 42 min
Bit rate : 80.0 kb/s
Channel(s) : 2 channels
Channel positions : Front: L R
Sampling rate : 48.0 kHz / 24.0 kHz
Frame rate : 23.438 FPS (1024 spf)
Compression mode : Lossy
Delay relative to video : 40 ms
Stream size : 58.4 MiB (1%)
Language : Japanese
Default : No
Forced : No

Audio #3
ID : 4
Format : AAC
Format/Info : Advanced Audio Codec
Format profile : HE-AAC / LC
Codec ID : A_AAC
Duration : 1 h 42 min
Bit rate : 80.0 kb/s
Channel(s) : 2 channels
Channel positions : Front: L R
Sampling rate : 48.0 kHz / 24.0 kHz
Frame rate : 23.438 FPS (1024 spf)
Compression mode : Lossy
Delay relative to video : 40 ms
Stream size : 58.4 MiB (1%)
Language : French
Default : No
Forced : No

Audio #4
ID : 5
Format : AAC
Format/Info : Advanced Audio Codec
Format profile : HE-AAC / LC
Codec ID : A_AAC
Duration : 1 h 42 min
Bit rate : 80.0 kb/s
Channel(s) : 2 channels
Channel positions : Front: L R
Sampling rate : 48.0 kHz / 24.0 kHz
Frame rate : 23.438 FPS (1024 spf)
Compression mode : Lossy
Delay relative to video : 40 ms
Stream size : 58.4 MiB (1%)
Language : Italian
Default : No
Forced : No

Audio #5
ID : 6
Format : AAC
Format/Info : Advanced Audio Codec
Format profile : HE-AAC / LC
Codec ID : A_AAC
Duration : 1 h 42 min
Bit rate : 80.0 kb/s
Channel(s) : 2 channels
Channel positions : Front: L R
Sampling rate : 48.0 kHz / 24.0 kHz
Frame rate : 23.438 FPS (1024 spf)
Compression mode : Lossy
Delay relative to video : 40 ms
Stream size : 58.4 MiB (1%)
Language : German
Default : No
Forced : No

Audio #6
ID : 7
Format : AAC
Format/Info : Advanced Audio Codec
Format profile : HE-AAC / LC
Codec ID : A_AAC
Duration : 1 h 42 min
Bit rate : 80.0 kb/s
Channel(s) : 2 channels
Channel positions : Front: L R
Sampling rate : 48.0 kHz / 24.0 kHz
Frame rate : 23.438 FPS (1024 spf)
Compression mode : Lossy
Delay relative to video : 40 ms
Stream size : 58.4 MiB (1%)
Title : Castilian
Language : Spanish
Default : No
Forced : No

Audio #7
ID : 8
Format : AAC
Format/Info : Advanced Audio Codec
Format profile : HE-AAC / LC
Codec ID : A_AAC
Duration : 1 h 42 min
Bit rate : 80.0 kb/s
Channel(s) : 2 channels
Channel positions : Front: L R
Sampling rate : 48.0 kHz / 24.0 kHz
Frame rate : 23.438 FPS (1024 spf)
Compression mode : Lossy
Delay relative to video : 40 ms
Stream size : 58.4 MiB (1%)
Language : Portuguese
Default : No
Forced : No

Audio #8
ID : 9
Format : AAC
Format/Info : Advanced Audio Codec
Format profile : HE-AAC / LC
Codec ID : A_AAC
Duration : 1 h 42 min
Bit rate : 80.0 kb/s
Channel(s) : 2 channels
Channel positions : Front: L R
Sampling rate : 48.0 kHz / 24.0 kHz
Frame rate : 23.438 FPS (1024 spf)
Compression mode : Lossy
Delay relative to video : 40 ms
Stream size : 58.4 MiB (1%)
Title : Latin
Language : Spanish
Default : No
Forced : No

Audio #9
ID : 10
Format : AAC
Format/Info : Advanced Audio Codec
Format profile : HE-AAC / LC
Codec ID : A_AAC
Duration : 1 h 42 min
Bit rate : 80.0 kb/s
Channel(s) : 2 channels
Channel positions : Front: L R
Sampling rate : 48.0 kHz / 24.0 kHz
Frame rate : 23.438 FPS (1024 spf)
Compression mode : Lossy
Delay relative to video : 40 ms
Stream size : 58.4 MiB (1%)
Language : Russian
Default : No
Forced : No

Subtitle #1
ID : 11
Format : PGS
Muxing mode : zlib
Codec ID : S_HDMV/PGS
Codec ID/Info : Picture based subtitle format used on BDs/HD-DVDs
Duration : 1 h 38 min
Bit rate : 34.3 kb/s
Count of elements : 2315
Stream size : 24.3 MiB (1%)
Language : English
Default : No
Forced : No

Subtitle #2
ID : 12
Format : PGS
Muxing mode : zlib
Codec ID : S_HDMV/PGS
Codec ID/Info : Picture based subtitle format used on BDs/HD-DVDs
Duration : 1 h 35 min
Bit rate : 15.9 kb/s
Count of elements : 1702
Stream size : 10.9 MiB (0%)
Language : Japanese
Default : No
Forced : No

Subtitle #3
ID : 13
Format : PGS
Muxing mode : zlib
Codec ID : S_HDMV/PGS
Codec ID/Info : Picture based subtitle format used on BDs/HD-DVDs
Duration : 1 h 36 min
Bit rate : 27.4 kb/s
Count of elements : 1904
Stream size : 19.0 MiB (0%)
Language : French
Default : No
Forced : No

Subtitle #4
ID : 14
Format : PGS
Muxing mode : zlib
Codec ID : S_HDMV/PGS
Codec ID/Info : Picture based subtitle format used on BDs/HD-DVDs
Duration : 1 h 36 min
Bit rate : 25.1 kb/s
Count of elements : 1930
Stream size : 17.4 MiB (0%)
Language : Italian
Default : No
Forced : No

Subtitle #5
ID : 15
Format : PGS
Muxing mode : zlib
Codec ID : S_HDMV/PGS
Codec ID/Info : Picture based subtitle format used on BDs/HD-DVDs
Duration : 1 h 36 min
Bit rate : 31.9 kb/s
Count of elements : 1920
Stream size : 22.1 MiB (1%)
Language : German
Default : No
Forced : No

Subtitle #6
ID : 16
Format : PGS
Muxing mode : zlib
Codec ID : S_HDMV/PGS
Codec ID/Info : Picture based subtitle format used on BDs/HD-DVDs
Duration : 1 h 36 min
Bit rate : 29.9 kb/s
Count of elements : 2070
Stream size : 20.8 MiB (0%)
Title : Castilian
Language : Spanish
Default : No
Forced : No

Subtitle #7
ID : 17
Format : PGS
Muxing mode : zlib
Codec ID : S_HDMV/PGS
Codec ID/Info : Picture based subtitle format used on BDs/HD-DVDs
Duration : 1 h 40 min
Bit rate : 24.5 kb/s
Count of elements : 1842
Stream size : 17.6 MiB (0%)
Language : Portuguese
Default : No
Forced : No

Subtitle #8
ID : 18
Format : PGS
Muxing mode : zlib
Codec ID : S_HDMV/PGS
Codec ID/Info : Picture based subtitle format used on BDs/HD-DVDs
Duration : 1 h 35 min
Bit rate : 31.9 kb/s
Count of elements : 1863
Stream size : 21.9 MiB (1%)
Title : Latin
Language : Spanish
Default : No
Forced : No

Subtitle #9
ID : 19
Format : PGS
Muxing mode : zlib
Codec ID : S_HDMV/PGS
Codec ID/Info : Picture based subtitle format used on BDs/HD-DVDs
Duration : 1 h 36 min
Bit rate : 28.1 kb/s
Count of elements : 2070
Stream size : 19.5 MiB (0%)
Language : Russian
Default : No
Forced : No

Subtitle #10
ID : 20
Format : PGS
Muxing mode : zlib
Codec ID : S_HDMV/PGS
Codec ID/Info : Picture based subtitle format used on BDs/HD-DVDs
Duration : 1 h 36 min
Bit rate : 21.7 kb/s
Count of elements : 2068
Stream size : 15.1 MiB (0%)
Language : Chinese
Default : No
Forced : No

Subtitle #11
ID : 21
Format : PGS
Muxing mode : zlib
Codec ID : S_HDMV/PGS
Codec ID/Info : Picture based subtitle format used on BDs/HD-DVDs
Duration : 1 h 36 min
Bit rate : 26.2 kb/s
Count of elements : 1932
Stream size : 18.2 MiB (0%)
Language : Czech
Default : No
Forced : No

Subtitle #12
ID : 22
Format : PGS
Muxing mode : zlib
Codec ID : S_HDMV/PGS
Codec ID/Info : Picture based subtitle format used on BDs/HD-DVDs
Duration : 1 h 36 min
Bit rate : 27.6 kb/s
Count of elements : 1926
Stream size : 19.2 MiB (0%)
Language : Danish
Default : No
Forced : No

Subtitle #13
ID : 23
Format : PGS
Muxing mode : zlib
Codec ID : S_HDMV/PGS
Codec ID/Info : Picture based subtitle format used on BDs/HD-DVDs
Duration : 1 h 36 min
Bit rate : 29.2 kb/s
Count of elements : 1872
Stream size : 20.3 MiB (0%)
Language : Dutch
Default : No
Forced : No

Subtitle #14
ID : 24
Format : PGS
Muxing mode : zlib
Codec ID : S_HDMV/PGS
Codec ID/Info : Picture based subtitle format used on BDs/HD-DVDs
Duration : 1 h 36 min
Bit rate : 29.4 kb/s
Count of elements : 1952
Stream size : 20.4 MiB (0%)
Language : Finnish
Default : No
Forced : No

Subtitle #15
ID : 25
Format : PGS
Muxing mode : zlib
Codec ID : S_HDMV/PGS
Codec ID/Info : Picture based subtitle format used on BDs/HD-DVDs
Duration : 1 h 36 min
Bit rate : 32.0 kb/s
Count of elements : 2070
Stream size : 22.2 MiB (1%)
Language : Greek
Default : No
Forced : No

Subtitle #16
ID : 26
Format : PGS
Muxing mode : zlib
Codec ID : S_HDMV/PGS
Codec ID/Info : Picture based subtitle format used on BDs/HD-DVDs
Duration : 1 h 36 min
Bit rate : 29.8 kb/s
Count of elements : 1942
Stream size : 20.7 MiB (0%)
Language : Hungarian
Default : No
Forced : No

Subtitle #17
ID : 27
Format : PGS
Muxing mode : zlib
Codec ID : S_HDMV/PGS
Codec ID/Info : Picture based subtitle format used on BDs/HD-DVDs
Duration : 1 h 40 min
Bit rate : 20.0 kb/s
Count of elements : 1876
Stream size : 14.3 MiB (0%)
Language : Korean
Default : No
Forced : No

Subtitle #18
ID : 28
Format : PGS
Muxing mode : zlib
Codec ID : S_HDMV/PGS
Codec ID/Info : Picture based subtitle format used on BDs/HD-DVDs
Duration : 1 h 36 min
Bit rate : 27.6 kb/s
Count of elements : 1946
Stream size : 19.1 MiB (0%)
Language : Norwegian Bokmal
Default : No
Forced : No

Subtitle #19
ID : 29
Format : PGS
Muxing mode : zlib
Codec ID : S_HDMV/PGS
Codec ID/Info : Picture based subtitle format used on BDs/HD-DVDs
Duration : 1 h 36 min
Bit rate : 28.7 kb/s
Count of elements : 1940
Stream size : 19.9 MiB (0%)
Language : Polish
Default : No
Forced : No

Subtitle #20
ID : 30
Format : PGS
Muxing mode : zlib
Codec ID : S_HDMV/PGS
Codec ID/Info : Picture based subtitle format used on BDs/HD-DVDs
Duration : 1 h 40 min
Bit rate : 28.8 kb/s
Count of elements : 1934
Stream size : 20.6 MiB (0%)
Language : Portuguese
Default : No
Forced : No

Subtitle #21
ID : 31
Format : PGS
Muxing mode : zlib
Codec ID : S_HDMV/PGS
Codec ID/Info : Picture based subtitle format used on BDs/HD-DVDs
Duration : 1 h 36 min
Bit rate : 26.1 kb/s
Count of elements : 1944
Stream size : 18.1 MiB (0%)
Language : Swedish
Default : No
Forced : No

Subtitle #22
ID : 32
Format : PGS
Muxing mode : zlib
Codec ID : S_HDMV/PGS
Codec ID/Info : Picture based subtitle format used on BDs/HD-DVDs
Duration : 1 h 36 min
Bit rate : 23.1 kb/s
Count of elements : 1854
Stream size : 16.0 MiB (0%)
Language : Thai
Default : No
Forced : No

Subtitle #23
ID : 33
Format : PGS
Muxing mode : zlib
Codec ID : S_HDMV/PGS
Codec ID/Info : Picture based subtitle format used on BDs/HD-DVDs
Duration : 1 h 36 min
Bit rate : 30.4 kb/s
Count of elements : 1952
Stream size : 21.1 MiB (0%)
Language : Turkish
Default : No
Forced : No

Subtitle #24
ID : 34
Format : PGS
Muxing mode : zlib
Codec ID : S_HDMV/PGS
Codec ID/Info : Picture based subtitle format used on BDs/HD-DVDs
Duration : 1 h 40 min
Bit rate : 19.8 kb/s
Count of elements : 1877
Stream size : 14.2 MiB (0%)
Language : Chinese
Default : No
Forced : No

Subtitle #25
ID : 35
Format : PGS
Muxing mode : zlib
Codec ID : S_HDMV/PGS
Codec ID/Info : Picture based subtitle format used on BDs/HD-DVDs
Duration : 1 h 7 min
Bit rate : 3 468 b/s
Count of elements : 218
Stream size : 1.67 MiB (0%)
Language : Japanese
Default : No
Forced : No

Subtitle #26
ID : 36
Format : PGS
Muxing mode : zlib
Codec ID : S_HDMV/PGS
Codec ID/Info : Picture based subtitle format used on BDs/HD-DVDs
Duration : 1 h 7 min
Bit rate : 296 b/s
Count of elements : 13
Stream size : 147 KiB (0%)
Language : French
Default : No
Forced : No

Subtitle #27
ID : 37
Format : PGS
Muxing mode : zlib
Codec ID : S_HDMV/PGS
Codec ID/Info : Picture based subtitle format used on BDs/HD-DVDs
Duration : 1 h 7 min
Bit rate : 84 b/s
Count of elements : 5
Stream size : 41.8 KiB (0%)
Language : Italian
Default : No
Forced : No

Subtitle #28
ID : 38
Format : PGS
Muxing mode : zlib
Codec ID : S_HDMV/PGS
Codec ID/Info : Picture based subtitle format used on BDs/HD-DVDs
Duration : 1 h 7 min
Bit rate : 104 b/s
Count of elements : 5
Stream size : 51.6 KiB (0%)
Language : German
Default : No
Forced : No

Subtitle #29
ID : 39
Format : PGS
Muxing mode : zlib
Codec ID : S_HDMV/PGS
Codec ID/Info : Picture based subtitle format used on BDs/HD-DVDs
Duration : 1 h 34 min
Bit rate : 200 b/s
Count of elements : 9
Stream size : 138 KiB (0%)
Title : Castilian
Language : Spanish
Default : No
Forced : No

Subtitle #30
ID : 40
Format : PGS
Muxing mode : zlib
Codec ID : S_HDMV/PGS
Codec ID/Info : Picture based subtitle format used on BDs/HD-DVDs
Duration : 1 h 40 min
Bit rate : 195 b/s
Count of elements : 15
Stream size : 143 KiB (0%)
Language : Portuguese
Default : No
Forced : No

Subtitle #31
ID : 41
Format : PGS
Muxing mode : zlib
Codec ID : S_HDMV/PGS
Codec ID/Info : Picture based subtitle format used on BDs/HD-DVDs
Duration : 29 min 43 s
Bit rate : 1 018 b/s
Count of elements : 18
Stream size : 222 KiB (0%)
Title : Latin
Language : Spanish
Default : No
Forced : No

Subtitle #32
ID : 42
Format : PGS
Muxing mode : zlib
Codec ID : S_HDMV/PGS
Codec ID/Info : Picture based subtitle format used on BDs/HD-DVDs
Duration : 1 h 34 min
Bit rate : 183 b/s
Count of elements : 9
Stream size : 126 KiB (0%)
Language : Russian
Default : No
Forced : No

Menu
00:00:00.000 : en:Chapter 01
00:05:02.010 : en:Chapter 02
00:09:36.117 : en:Chapter 03
00:15:52.576 : en:Chapter 04
00:19:25.497 : en:Chapter 05
00:27:48.083 : en:Chapter 06
00:31:05.488 : en:Chapter 07
00:42:28.837 : en:Chapter 08
00:51:36.843 : en:Chapter 09
00:56:19.793 : en:Chapter 10
01:01:01.032 : en:Chapter 11
01:02:32.582 : en:Chapter 12
01:07:34.842 : en:Chapter 13
01:13:17.684 : en:Chapter 14
01:19:46.531 : en:Chapter 15
01:27:30.995 : en:Chapter 16
01:29:42.502 : en:Chapter 17
01:41:28.040 : en:Chapter 18

Source Information

Code:

Release:
Play Misty for Me (1971) Bluray (30.8 GB)


Note From QxR:

Quote:

Whilst we are happy for our releases to be re-posted on a platform we aren't on, please do so in an 'as-is' format. We ask that you do not create a new torrent, include all descriptions you see above including the QxR logo, tags, notes and screenshots. If you'd like to become a permanent poster on a website we don't post to, feel free to get in contact with a QxR member.





Sharing Widget


No Comments For This Torrent . Be The First to Comment

You must Login to Comment . Click Here to Login

Menu 1

Some content in menu 1.

Play Misty for Me (1971) (1080p BluRay x265 HEVC 10bit AAC 2 0 English (Size: 4.2 GB)
  Play Misty for Me (1971) (1080p BluRay x265 HEVC 10bit AAC 2 0 English 4.2 GB
tracker name
udp://tracker.leechers-paradise.org:6969/announce
udp://zer0day.ch:1337/announce
udp://open.demonii.com:1337/announce
udp://tracker.coppersurfer.tk:6969/announce
udp://exodus.desync.com:6969/announce
µTorrent compatible trackers list

Relative Torrents

Torrent Name Size Age SEED LEECH
Stephen Colbert 2018 12 11 Whoopi Goldbeg WEB x264-TBS [eztv]
Posted by    EZTVag   in   TV
648.6 MB 4 minutes 462 295
Nowhere Boys S04E10 WEB x264-FLX [eztv]
Posted by    EZTVag   in   TV
213.0 MB 4 minutes 325 214
Jalebi The Taste of Everlasting Love (208) 720p WEB-Rip x264 AC3 DD5 1 - ESUB ~
Posted by    TheFighter   in   Movies
1.3 GB 8 minutes 125 921
Adam Ruins Everything S02E25 480p x264-mD [eztv]
Posted by    EZTVag   in   TV
117.1 MB 9 minutes 70 859
Stephen Colbert 2018 12 11 Whoopi Goldbeg WEB x264-TBS[TGx]
Posted by    mazemaze16   in   TV
651.9 MB 9 minutes 108 595