Saraband (2003) Criterion (1080p BluRay Torrent Free Download

Seeders : 564   &   Leechers : 202      07-12-2018 (4 days)
Saraband (2003) Criterion (1080p BluRay Torrent Download
Added: ago by QxR ***** in Movies   2.3 GB   Hits : 19
Info Hash: 5DB8C9C6446F60CEBF6BC9D6FDDB7D4328401534 Download
Saraband (2003) Criterion (1080p BluRay Torrent Download

Anonymous and Direct Download movies , software , shows...

Fast Safe Anonymous
movies, software, shows...
Saraband
Drama /Music  .   107 min   7.7/10
Director : Ingmar Bergman  
Writer: Ingmar Bergman  
Tags: Saraband  (2003)  Criterion  (1080p  BluRay  x265  

Released:
01 Dec 2003
Marianne and Johan meet again after thirty years without contact, when Marianne suddenly feels a need to see her ex-husband again. She decides to visit Johan at his old summer house in the western province of Dalarna. And so, one beautiful autumn day, there she is,.... See More beside his reclining chair, waking him with a light kiss. Staying at a cottage on the property are Johan's son Henrik and Henrik's daughter Karin. Henrik is giving his daughter cello lessons and already sees her future as staked out. Relations between father and son are very strained, but both are protective of Karin. They are all still mourning Anna, Henrik's much-loved wife, who died two years ago, yet who, in many ways, remains present among them. Marianne soon realizes that things are not all as they should be, and she finds herself unwillingly drawn into a complicated and upsetting power struggle.

Torrent Description





http://www.imdb.com/title/tt0299478/





Media Information

Code:

General
Format : Matroska
Format version : Version 4 / Version 2
File size : 2.29 GiB
Duration : 1 h 51 min
Overall bit rate : 2 926 kb/s
Movie name : SCENES FROM A MARRIAGE / SARABAND
Encoded date : UTC 2018-12-06 09:31:16
Writing application : mkvmerge v29.0.0 ('Like It Or Not') 64-bit
Writing library : libebml v1.3.6 + libmatroska v1.4.9
Cover : Yes
Attachments : cover.jpg
Writing frontend : StaxRip v1.9.0.0

Video
ID : 1
Format : HEVC
Format/Info : High Efficiency Video Coding
Format profile : Main [email protected]@Main
Codec ID : V_MPEGH/ISO/HEVC
Duration : 1 h 51 min
Bit rate : 2 769 kb/s
Width : 1 920 pixels
Height : 1 080 pixels
Display aspect ratio : 16:9
Frame rate mode : Constant
Frame rate : 23.976 (24000/1001) FPS
Color space : YUV
Chroma subsampling : 4:2:0
Bit depth : 10 bits
Bits/(Pixel*Frame) : 0.056
Stream size : 2.16 GiB (95%)
Writing library : x265 2.9+9-f74003e88622:[Windows][GCC 8.2.0][64 bit] 10bit
Encoding settings : cpuid=1111039 / frame-threads=3 / numa-pools=8 / wpp / no-pmode / no-pme / no-psnr / no-ssim / log-level=2 / input-csp=1 / input-res=1920x1080 / interlace=0 / total-frames=160915 / level-idc=0 / high-tier=1 / uhd-bd=0 / ref=4 / no-allow-non-conformance / no-repeat-headers / annexb / no-aud / no-hrd / info / hash=0 / no-temporal-layers / open-gop / min-keyint=23 / keyint=250 / gop-lookahead=0 / bframes=8 / b-adapt=2 / b-pyramid / bframe-bias=0 / rc-lookahead=80 / lookahead-slices=4 / scenecut=40 / radl=0 / no-intra-refresh / ctu=64 / min-cu-size=8 / no-rect / no-amp / max-tu-size=32 / tu-inter-depth=1 / tu-intra-depth=1 / limit-tu=0 / rdoq-level=2 / dynamic-rd=0.00 / no-ssim-rd / signhide / no-tskip / nr-intra=0 / nr-inter=0 / no-constrained-intra / no-strong-intra-smoothing / max-merge=3 / limit-refs=3 / limit-modes / me=3 / subme=5 / merange=57 / temporal-mvp / weightp / no-weightb / no-analyze-src-pics / deblock=-3:-3 / no-sao / no-sao-non-deblock / rd=4 / no-early-skip / rskip / no-fast-intra / no-tskip-fast / no-cu-lossless / no-b-intra / no-splitrd-skip / rdpenalty=0 / psy-rd=2.00 / psy-rdoq=1.00 / no-rd-refine / no-lossless / cbqpoffs=0 / crqpoffs=0 / rc=crf / crf=21.0 / qcomp=0.60 / qpstep=4 / stats-write=0 / stats-read=0 / ipratio=1.40 / pbratio=1.30 / aq-mode=3 / aq-strength=1.00 / cutree / zone-count=0 / no-strict-cbr / qg-size=32 / no-rc-grain / qpmax=69 / qpmin=0 / no-const-vbv / sar=0 / overscan=0 / videoformat=5 / range=0 / colorprim=2 / transfer=2 / colormatrix=2 / chromaloc=0 / display-window=0 / max-cll=0,0 / min-luma=0 / max-luma=1023 / log2-max-poc-lsb=8 / vui-timing-info / vui-hrd-info / slices=1 / no-opt-qp-pps / no-opt-ref-list-length-pps / no-multi-pass-opt-rps / scenecut-bias=0.05 / no-opt-cu-delta-qp / no-aq-motion / no-hdr / no-hdr-opt / no-dhdr10-opt / no-idr-recovery-sei / analysis-reuse-level=5 / scale-factor=0 / refine-intra=0 / refine-inter=0 / refine-mv=0 / no-limit-sao / ctu-info=0 / no-lowpass-dct / refine-mv-type=0 / copy-pic=1 / max-ausize-factor=1.0 / no-dynamic-refine / no-single-sei
Default : Yes
Forced : No

Audio
ID : 2
Format : AAC
Format/Info : Advanced Audio Codec
Format profile : LC
Codec ID : A_AAC
Duration : 1 h 51 min
Bit rate : 144 kb/s
Channel(s) : 2 channels
Channel positions : Front: L R
Sampling rate : 48.0 kHz
Frame rate : 46.875 FPS (1024 spf)
Compression mode : Lossy
Delay relative to video : 20 ms
Stream size : 114 MiB (5%)
Language : Swedish
Default : No
Forced : No

Subtitle
ID : 3
Format : PGS
Muxing mode : zlib
Codec ID : S_HDMV/PGS
Codec ID/Info : Picture based subtitle format used on BDs/HD-DVDs
Duration : 1 h 49 min
Bit rate : 43.8 kb/s
Count of elements : 2525
Stream size : 34.2 MiB (1%)
Language : English
Default : No
Forced : No

Menu
00:00:00.000 : en:Chapter 01
00:02:58.928 : en:Chapter 02
00:07:45.756 : en:Chapter 03
00:12:38.758 : en:Chapter 04
00:19:22.953 : en:Chapter 05
00:23:52.556 : en:Chapter 06
00:30:34.332 : en:Chapter 07
00:36:04.871 : en:Chapter 08
00:45:02.032 : en:Chapter 09
00:53:38.423 : en:Chapter 10
01:01:19.133 : en:Chapter 11
01:05:30.843 : en:Chapter 12
01:14:43.729 : en:Chapter 13
01:23:20.120 : en:Chapter 14
01:28:30.805 : en:Chapter 15
01:34:27.620 : en:Chapter 16
01:39:07.775 : en:Chapter 17
01:44:33.892 : en:Chapter 18

Source Information

Code:

Release:
Scenes from a Marriage 1973 1080p Criterion Collection Blu-Ray AVC LCPM 1.0


Note From QxR:

Quote:

Whilst we are happy for our releases to be re-posted on a platform we aren't on, please do so in an 'as-is' format. We ask that you do not create a new torrent, include all descriptions you see above including the QxR logo, tags, notes and screenshots. If you'd like to become a permanent poster on a website we don't post to, feel free to get in contact with a QxR member.





Sharing Widget


No Comments For This Torrent . Be The First to Comment

You must Login to Comment . Click Here to Login

Menu 1

Some content in menu 1.

Saraband (2003) Criterion (1080p BluRay x265 HEVC 10bit AAC 2 0 Swedis (Size: 2.3 GB)
  Saraband (2003) Criterion (1080p BluRay x265 HEVC 10bit AAC 2 0 Swedis 2.3 GB
tracker name
udp://tracker.leechers-paradise.org:6969/announce
udp://zer0day.ch:1337/announce
udp://open.demonii.com:1337/announce
udp://tracker.coppersurfer.tk:6969/announce
udp://exodus.desync.com:6969/announce
µTorrent compatible trackers list

Relative Torrents

Torrent Name Size Age SEED LEECH
The Voice S15E24 720p WEB x264-TBS[TGx]
Posted by    mazemaze16   in   TV
824.3 MB 7 seconds 629 182
The Voice S15E24 720p WEB x264-TBS [eztv
Posted by    EZTVag   in   TV
820.7 MB 7 seconds 890 341
The Voice S15E24 WEB x264-TBS[TGx]
Posted by    mazemaze16   in   TV
602.9 MB 7 seconds 311 728
James Corden 2018 12 11 Ellen DeGeneres 20p WEB x264-TBS
Posted by    Trige   in   TV
880.1 MB 7 seconds 695 360
Cold Ground (2017) [WEBRip] [1080p] [YTS [YIFY]
Posted by    YTSAGx   in   Movies
1.4 GB 3 minutes 225 743