Scenes from a Marriage (1974) Theatrical Torrent Free Download

Seeders : 568   &   Leechers : 245      07-12-2018 (4 days)
Scenes from a Marriage (1974) Theatrical Torrent Download
Added: ago by QxR ***** in Movies   5.9 GB   Hits : 19
Info Hash: 5282E3868D07EDED9C3F10016CEBA9A1DE2ADFF4 Download
Scenes from a Marriage (1974) Theatrical Torrent Download

Anonymous and Direct Download movies , software , shows...

Fast Safe Anonymous
movies, software, shows...
Scenes from a Marriage
Drama   .   283 min   8.5/10
Director : N/A  
Writer: N/A  
Tags: Scenes  from  a  Marriage  (1974)  Theatrical  

Released:
15 Sep 1974
Ten years of Marianne and Johan's relationship are presented. We first meet them ten years into their marriage. He is a college professor, she a divorce lawyer. They say that they are happily married - unlike their friends Katarina and Peter who openly fight, espec.... See More ially when under the influence of alcohol - but there is a certain detached aloofness in the way they treat each other. In the next ten years, as they contemplate or embark upon divorce and/or known extramarital affairs, they come to differing understandings at each phase of their relationship of what they truly mean to each other. Regardless of if it's love or hate - between which there is a fine line - they also come to certain understandings of how they can best relate to each other, whether that be as husband and wife, friends, lovers or none of the above.

Torrent Description





http://www.imdb.com/title/tt6725014/





Media Information

Code:

General
Format : Matroska
Format version : Version 4 / Version 2
File size : 5.93 GiB
Duration : 2 h 49 min
Overall bit rate : 4 997 kb/s
Movie name : INGMAR BERGMAN’S SCENES FROM A MARRIAGE - DISC 02
Encoded date : UTC 2018-12-04 03:34:21
Writing application : mkvmerge v29.0.0 ('Like It Or Not') 64-bit
Writing library : libebml v1.3.6 + libmatroska v1.4.9
Cover : Yes
Attachments : cover.jpg
Writing frontend : StaxRip v1.9.0.0

Video
ID : 1
Format : HEVC
Format/Info : High Efficiency Video Coding
Format profile : Main [email protected]@Main
Codec ID : V_MPEGH/ISO/HEVC
Duration : 2 h 49 min
Bit rate : 4 896 kb/s
Width : 1 440 pixels
Height : 1 080 pixels
Display aspect ratio : 4:3
Frame rate mode : Constant
Frame rate : 23.976 (24000/1001) FPS
Color space : YUV
Chroma subsampling : 4:2:0
Bit depth : 10 bits
Bits/(Pixel*Frame) : 0.131
Stream size : 5.81 GiB (98%)
Writing library : x265 2.9+9-f74003e88622:[Windows][GCC 8.2.0][64 bit] 10bit
Encoding settings : cpuid=1111039 / frame-threads=3 / numa-pools=8 / wpp / no-pmode / no-pme / no-psnr / no-ssim / log-level=2 / input-csp=1 / input-res=1440x1080 / interlace=0 / total-frames=244464 / level-idc=0 / high-tier=1 / uhd-bd=0 / ref=4 / no-allow-non-conformance / no-repeat-headers / annexb / no-aud / no-hrd / info / hash=0 / no-temporal-layers / open-gop / min-keyint=23 / keyint=250 / gop-lookahead=0 / bframes=8 / b-adapt=2 / b-pyramid / bframe-bias=0 / rc-lookahead=80 / lookahead-slices=4 / scenecut=40 / radl=0 / no-intra-refresh / ctu=64 / min-cu-size=8 / no-rect / no-amp / max-tu-size=32 / tu-inter-depth=1 / tu-intra-depth=1 / limit-tu=0 / rdoq-level=2 / dynamic-rd=0.00 / no-ssim-rd / signhide / no-tskip / nr-intra=0 / nr-inter=0 / no-constrained-intra / no-strong-intra-smoothing / max-merge=3 / limit-refs=3 / limit-modes / me=3 / subme=5 / merange=57 / temporal-mvp / weightp / no-weightb / no-analyze-src-pics / deblock=-3:-3 / no-sao / no-sao-non-deblock / rd=4 / no-early-skip / rskip / no-fast-intra / no-tskip-fast / no-cu-lossless / no-b-intra / no-splitrd-skip / rdpenalty=0 / psy-rd=2.00 / psy-rdoq=1.00 / no-rd-refine / no-lossless / cbqpoffs=0 / crqpoffs=0 / rc=crf / crf=24.0 / qcomp=0.60 / qpstep=4 / stats-write=0 / stats-read=0 / ipratio=1.40 / pbratio=1.30 / aq-mode=3 / aq-strength=1.00 / cutree / zone-count=0 / no-strict-cbr / qg-size=32 / no-rc-grain / qpmax=69 / qpmin=0 / no-const-vbv / sar=0 / overscan=0 / videoformat=5 / range=0 / colorprim=2 / transfer=2 / colormatrix=2 / chromaloc=0 / display-window=0 / max-cll=0,0 / min-luma=0 / max-luma=1023 / log2-max-poc-lsb=8 / vui-timing-info / vui-hrd-info / slices=1 / no-opt-qp-pps / no-opt-ref-list-length-pps / no-multi-pass-opt-rps / scenecut-bias=0.05 / no-opt-cu-delta-qp / no-aq-motion / no-hdr / no-hdr-opt / no-dhdr10-opt / no-idr-recovery-sei / analysis-reuse-level=5 / scale-factor=0 / refine-intra=0 / refine-inter=0 / refine-mv=0 / no-limit-sao / ctu-info=0 / no-lowpass-dct / refine-mv-type=0 / copy-pic=1 / max-ausize-factor=1.0 / no-dynamic-refine / no-single-sei
Default : Yes
Forced : No

Audio
ID : 2
Format : AAC
Format/Info : Advanced Audio Codec
Format profile : LC
Codec ID : A_AAC
Duration : 2 h 49 min
Bit rate : 90.7 kb/s
Channel(s) : 1 channel
Channel positions : Front: C
Sampling rate : 48.0 kHz
Frame rate : 46.875 FPS (1024 spf)
Compression mode : Lossy
Delay relative to video : 20 ms
Stream size : 110 MiB (2%)
Language : Swedish
Default : No
Forced : No

Subtitle
ID : 3
Format : PGS
Muxing mode : zlib
Codec ID : S_HDMV/PGS
Codec ID/Info : Picture based subtitle format used on BDs/HD-DVDs
Duration : 2 h 48 min
Bit rate : 50.8 kb/s
Count of elements : 4222
Stream size : 61.1 MiB (1%)
Language : English
Default : No
Forced : No

Menu
00:00:00.000 : en:Chapter 01
00:08:39.894 : en:Chapter 02
00:13:14.502 : en:Chapter 03
00:21:40.757 : en:Chapter 04
00:24:29.509 : en:Chapter 05
00:33:03.398 : en:Chapter 06
00:40:52.074 : en:Chapter 07
00:47:13.413 : en:Chapter 08
00:53:40.467 : en:Chapter 09
01:03:31.307 : en:Chapter 10
01:18:38.547 : en:Chapter 11
01:25:35.255 : en:Chapter 12
01:29:40.416 : en:Chapter 13
01:35:42.653 : en:Chapter 14
01:45:29.364 : en:Chapter 15
01:52:34.748 : en:Chapter 16
01:55:48.942 : en:Chapter 17
02:04:03.436 : en:Chapter 18
02:19:15.430 : en:Chapter 19
02:24:33.164 : en:Chapter 20
02:32:46.240 : en:Chapter 21
02:35:52.301 : en:Chapter 22
02:42:37.706 : en:Chapter 23

Source Information

Code:

Release:
Scenes from a Marriage 1973 1080p Criterion Collection Blu-Ray AVC LCPM 1.0


Note From QxR:

Quote:

Whilst we are happy for our releases to be re-posted on a platform we aren't on, please do so in an 'as-is' format. We ask that you do not create a new torrent, include all descriptions you see above including the QxR logo, tags, notes and screenshots. If you'd like to become a permanent poster on a website we don't post to, feel free to get in contact with a QxR member.





Sharing Widget


No Comments For This Torrent . Be The First to Comment

You must Login to Comment . Click Here to Login

Menu 1

Some content in menu 1.

Scenes from a Marriage (1974) Theatrical Criterion (1080p BluRay x265 (Size: 5.9 GB)
  Scenes from a Marriage (1974) Theatrical Criterion (1080p BluRay x265 5.9 GB
tracker name
udp://tracker.leechers-paradise.org:6969/announce
udp://zer0day.ch:1337/announce
udp://open.demonii.com:1337/announce
udp://tracker.coppersurfer.tk:6969/announce
udp://exodus.desync.com:6969/announce
µTorrent compatible trackers list

Relative Torrents

Torrent Name Size Age SEED LEECH
The Voice S15E24 480p x264-mSD [eztv]
Posted by    EZTVag   in   TV
270.5 MB 1 minute 159 807
The Rookie S01E08 iNTERNAL 480p x264-mSD[eztv]
Posted by    EZTVag   in   TV
137.1 MB 1 minute 374 817
Splitting Up Together S02E08 WEBRip x264ION10
Posted by    Trige   in   TV
208.2 MB 1 minute 585 343
The Rookie S01E08 WEBRip x264-ION10
Posted by    Trige   in   TV
401.6 MB 1 minute 569 250
A Simple Favor (2018) (1080p BluRay x265HEVC 10bit AAC 5 1 Tigole) [QxR]
Posted by    QxR   in   Movies
5.3 GB 3 minutes 838 726