The Orville S02E03 WEB-DL XviD B4ND1T69 Torrent Free Download

Seeders : 249   &   Leechers : 459      11-01-2019 (6 days)
The Orville S02E03 WEB-DL XviD B4ND1T69 Torrent Download
Added: ago by B4ND1T69 ***** in TV   371.4 MB   Hits : 16
Info Hash: 8F9604896955C68A4EDD5F905A12BD7AC562FD49 Download
The Orville S02E03 WEB-DL XviD B4ND1T69 Torrent Download

Anonymous and Direct Download movies , software , shows...

Fast Safe Anonymous
movies, software, shows...

Torrent Description



The.Orville.S02E03.WEB-DL.XviD.B4ND1T69



Creator: Seth MacFarlane
Stars: Seth MacFarlane, Adrianne Palicki, Penny Johnson Jerald

Plot/Story:
Home
Ed, Gordon and Alara visit Alara's home planet of Xelayah.

General
Complete name : The.Orville.S02E03.WEB-DL.XviD.B4ND1T69.avi
Format : AVI
Format/Info : Audio Video Interleave
File size : 371 MiB
Duration : 48 min 26 s
Overall bit rate : 1 072 kb/s
Subtitles : Yes...Included(HI)

Video
ID : 0
Format : MPEG-4 Visual
Format profile : Advanced [email protected]
Format settings, BVOP : 2
Format settings, QPel : No
Format settings, GMC : No warppoints
Format settings, Matrix : Default (H.263)
Codec ID : XVID
Codec ID/Hint : XviD
Duration : 48 min 26 s
Bit rate : 930 kb/s
Width : 640 pixels
Height : 360 pixels
Display aspect ratio : 16:9
Frame rate : 23.976 (24000/1001) FPS
Color space : YUV
Chroma subsampling : 4:2:0
Bit depth : 8 bits
Scan type : Progressive
Compression mode : Lossy
Bits/(Pixel*Frame) : 0.168
Stream size : 322 MiB (87%)
Writing library : XviD 64

Audio
ID : 1
Format : MPEG Audio
Format version : Version 1
Format profile : Layer 3
Codec ID : 55
Codec ID/Hint : MP3
Duration : 48 min 26 s
Bit rate mode : Constant
Bit rate : 128 kb/s
Channel(s) : 2 channels
Sampling rate : 48.0 kHz
Compression mode : Lossy
Stream size : 44.3 MiB (12%)
Alignment : Aligned on interleaves
Interleave, duration : 24 ms (0.58 video frame)

Screenshots:







Please Seed For As Long As Possible
Or At Least 1:1 Ratio...Thanks
Enjoy Peeps




Sharing Widget


No Comments For This Torrent . Be The First to Comment

You must Login to Comment . Click Here to Login

Menu 1

Some content in menu 1.

The Orville S02E03 WEB-DL XviD B4ND1T69 (Size: 371.4 MB)
  The Orville S02E03 WEB-DL XviD B4ND1T69 371.4 MB
tracker name
udp://tracker.leechers-paradise.org:6969/announce
udp://zer0day.ch:1337/announce
udp://open.demonii.com:1337/announce
udp://tracker.coppersurfer.tk:6969/announce
udp://exodus.desync.com:6969/announce
µTorrent compatible trackers list

Relative Torrents

Torrent Name Size Age SEED LEECH
All These Small Moments 2019 720p WEB-DLx264-TFPDL
Posted by    dell3000   in   Movies
477.3 MB 1 minute 774 733
Dr Pimple Popper S02E03 The Last UnicornWEB x264-CAFFEiNE [eztv]
Posted by    EZTVag   in   TV
340.3 MB 2 minutes 528 730
The Last Man 2018 720p WEB-DL DD5 1 H264FGT
Posted by    Trige   in   Movies
3.2 GB 3 minutes 757 636
The Last Man 2018 HDRip XviD AC3-EVO[TGx
Posted by    mazemaze16   in   Movies
1.4 GB 6 minutes 578 744
An Acceptable Loss 2018 WEB-DL XviD MP3-GT
Posted by    Trige   in   Movies
1.2 GB 12 minutes 438 795