The Wrestler (2008) (1080p BluRay x265 H Torrent Free Download

Seeders : 818   &   Leechers : 783      07-12-2018 (4 days)
The Wrestler (2008) (1080p BluRay x265 H Torrent Download
Added: ago by QxR ***** in Movies   5.3 GB   Hits : 24
Info Hash: 6E8C1E050AD4338204DF6C6E1A4CB274C09D403A Download
The Wrestler (2008) (1080p BluRay x265 H Torrent Download

Anonymous and Direct Download movies , software , shows...

Fast Safe Anonymous
movies, software, shows...
The Wrestler
Drama /Sport  .   109 min   7.9/10
Director : Darren Aronofsky  
Writer: Robert Siegel  
Tags: The  Wrestler  (2008)  (1080p  BluRay  x265  

Released:
30 Jan 2009
This is a drama about an aging professional wrestler, decades past his prime, who now barely gets by working small wrestling shows in VFW halls and as a part-time grocery store employee. As he faces health problems that may end his wrestling career for good he atte.... See More mpts to come to terms with his life outside the ring: by working full time at the grocery store, trying to reconcile with the daughter he abandoned in childhood and forming a closer bond with a stripper he has romantic feelings for. He struggles with his new life and an offer of a high-profile rematch with his 1980s arch-nemesis, The Ayatollah, which may be his ticket back to stardom.

Torrent Description





http://www.imdb.com/title/tt1125849/





Media Information

Code:

General
Format : Matroska
Format version : Version 4 / Version 2
File size : 5.31 GiB
Duration : 1 h 49 min
Overall bit rate : 6 958 kb/s
Movie name : The Wrestler (2008)
Encoded date : UTC 2018-11-23 23:09:45
Writing application : mkvmerge v28.2.0 ('The Awakening') 64-bit
Writing library : libebml v1.3.6 + libmatroska v1.4.9
Writing frontend : StaxRip v1.9.0.0

Video
ID : 1
Format : HEVC
Format/Info : High Efficiency Video Coding
Format profile : Main [email protected]@Main
Codec ID : V_MPEGH/ISO/HEVC
Duration : 1 h 49 min
Bit rate : 6 495 kb/s
Width : 1 920 pixels
Height : 800 pixels
Display aspect ratio : 2.40:1
Frame rate mode : Constant
Frame rate : 23.976 (24000/1001) FPS
Color space : YUV
Chroma subsampling : 4:2:0
Bit depth : 10 bits
Bits/(Pixel*Frame) : 0.176
Stream size : 4.96 GiB (93%)
Writing library : x265 2.9+8-27d8424c799d:[Windows][GCC 8.2.0][64 bit] 10bit
Encoding settings : cpuid=1111039 / frame-threads=3 / numa-pools=8 / wpp / no-pmode / no-pme / no-psnr / no-ssim / log-level=2 / input-csp=1 / input-res=1920x800 / interlace=0 / total-frames=157145 / level-idc=0 / high-tier=1 / uhd-bd=0 / ref=4 / no-allow-non-conformance / no-repeat-headers / annexb / no-aud / no-hrd / info / hash=0 / no-temporal-layers / open-gop / min-keyint=23 / keyint=250 / gop-lookahead=0 / bframes=8 / b-adapt=2 / b-pyramid / bframe-bias=0 / rc-lookahead=80 / lookahead-slices=4 / scenecut=40 / radl=0 / no-intra-refresh / ctu=64 / min-cu-size=8 / rect / no-amp / max-tu-size=32 / tu-inter-depth=1 / tu-intra-depth=1 / limit-tu=0 / rdoq-level=2 / dynamic-rd=0.00 / no-ssim-rd / signhide / no-tskip / nr-intra=0 / nr-inter=0 / no-constrained-intra / no-strong-intra-smoothing / max-merge=3 / limit-refs=3 / limit-modes / me=3 / subme=5 / merange=57 / temporal-mvp / weightp / no-weightb / no-analyze-src-pics / deblock=-3:-3 / no-sao / no-sao-non-deblock / rd=4 / no-early-skip / rskip / no-fast-intra / no-tskip-fast / no-cu-lossless / no-b-intra / no-splitrd-skip / rdpenalty=0 / psy-rd=2.00 / psy-rdoq=1.50 / no-rd-refine / no-lossless / cbqpoffs=0 / crqpoffs=0 / rc=abr / bitrate=6500 / qcomp=0.60 / qpstep=4 / stats-write=0 / stats-read=2 / cplxblur=20.0 / qblur=0.5 / ipratio=1.40 / pbratio=1.30 / aq-mode=3 / aq-strength=1.00 / cutree / zone-count=0 / no-strict-cbr / qg-size=32 / no-rc-grain / qpmax=69 / qpmin=0 / no-const-vbv / sar=0 / overscan=0 / videoformat=5 / range=0 / colorprim=2 / transfer=2 / colormatrix=2 / chromaloc=0 / display-window=0 / max-cll=0,0 / min-luma=0 / max-luma=1023 / log2-max-poc-lsb=8 / vui-timing-info / vui-hrd-info / slices=1 / no-opt-qp-pps / no-opt-ref-list-length-pps / no-multi-pass-opt-rps / scenecut-bias=0.05 / no-opt-cu-delta-qp / aq-motion / no-hdr / no-hdr-opt / no-dhdr10-opt / no-idr-recovery-sei / analysis-reuse-level=5 / scale-factor=0 / refine-intra=0 / refine-inter=0 / refine-mv=0 / no-limit-sao / ctu-info=0 / no-lowpass-dct / refine-mv-type=0 / copy-pic=1 / max-ausize-factor=1.0 / no-dynamic-refine / no-single-sei
Default : Yes
Forced : No

Audio
ID : 2
Format : AAC
Format/Info : Advanced Audio Codec
Format profile : LC
Codec ID : A_AAC
Duration : 1 h 49 min
Bit rate : 449 kb/s
Channel(s) : 6 channels
Channel positions : Front: L C R, Side: L R, LFE
Sampling rate : 48.0 kHz
Frame rate : 46.875 FPS (1024 spf)
Compression mode : Lossy
Delay relative to video : 20 ms
Stream size : 351 MiB (6%)
Language : English
Default : No
Forced : No

Subtitle
ID : 3
Format : PGS
Muxing mode : zlib
Codec ID : S_HDMV/PGS
Codec ID/Info : Picture based subtitle format used on BDs/HD-DVDs
Duration : 1 h 47 min
Bit rate : 35.8 kb/s
Count of elements : 2700
Stream size : 27.5 MiB (1%)
Language : English
Default : No
Forced : No

Menu
00:00:00.000 : en:Main Titles
00:07:08.594 : en:Twenty Years Later
00:17:43.437 : en:Living on the Edge
00:23:14.851 : en:Choreographing The Match
00:34:21.976 : en:Weekend Warriors
00:42:01.101 : en:The Lovely Cassidy
00:52:09.292 : en:Keeping It Going
00:55:05.260 : en:The Staple Gun
01:01:53.084 : en:It's Your Heart
01:14:21.290 : en:Welcome Home
01:20:40.293 : en:Can We Talk?
01:34:49.308 : en:Trying to Connect
01:44:47.808 : en:End Title

Source Information

Code:

Release:
The.Wrestler.2008.BluRay.1080p.DTS-HD.MA.5.1.AVC.REMUX-FraMeSToR


Note From QxR:

Quote:

Whilst we are happy for our releases to be re-posted on a platform we aren't on, please do so in an 'as-is' format. We ask that you do not create a new torrent, include all descriptions you see above including the QxR logo, tags, notes and screenshots. If you'd like to become a permanent poster on a website we don't post to, feel free to get in contact with a QxR member.





Sharing Widget


No Comments For This Torrent . Be The First to Comment

You must Login to Comment . Click Here to Login

Menu 1

Some content in menu 1.

The Wrestler (2008) (1080p BluRay x265 HEVC 10bit AAC 5 1 afm72) [QxR] (Size: 5.3 GB)
  The Wrestler (2008) (1080p BluRay x265 HEVC 10bit AAC 5 1 afm72) [QxR] 5.3 GB
tracker name
udp://tracker.leechers-paradise.org:6969/announce
udp://zer0day.ch:1337/announce
udp://open.demonii.com:1337/announce
udp://tracker.coppersurfer.tk:6969/announce
udp://exodus.desync.com:6969/announce
µTorrent compatible trackers list

Relative Torrents

Torrent Name Size Age SEED LEECH
The Voice S15E24 480p x264-mSD [eztv]
Posted by    EZTVag   in   TV
270.5 MB 2 minutes 159 807
The Rookie S01E08 iNTERNAL 480p x264-mSD[eztv]
Posted by    EZTVag   in   TV
137.1 MB 2 minutes 374 817
Splitting Up Together S02E08 WEBRip x264ION10
Posted by    Trige   in   TV
208.2 MB 2 minutes 585 343
The Rookie S01E08 WEBRip x264-ION10
Posted by    Trige   in   TV
401.6 MB 2 minutes 569 250
A Simple Favor (2018) (1080p BluRay x265HEVC 10bit AAC 5 1 Tigole) [QxR]
Posted by    QxR   in   Movies
5.3 GB 4 minutes 838 726